<?xml version="1.0" standalone="no"?>
<!DOCTYPE svg PUBLIC "-//W3C//DTD SVG 1.1//EN" "http://www.w3.org/Graphics/SVG/1.1/DTD/svg11.dtd" >
<svg xmlns="http://www.w3.org/2000/svg">
<defs>
  <font id="Element Plus" horiz-adv-x="1000">
    <font-face font-family="Element Plus"
      units-per-em="1000" ascent="1000"
      descent="0" />
    <missing-glyph horiz-adv-x="0" />
    <glyph glyph-name="ep:add-location"
      unicode="&#xE001;"
      horiz-adv-x="1000" d="M281.25 125H718.75Q750 125 750 93.75T718.75 62.5H281.25Q250 62.5 250 93.75T281.25 125zM781.25 593.75A281.25 281.25 0 1 1 218.75 593.75C218.75 478.375 311.0625 328.0000000000001 500 147.875C688.9375 328 781.25 478.375 781.25 593.75zM500 62.5C270.8125 270.8125 156.25 447.9375 156.25 593.75A343.75 343.75 0 0 0 843.75 593.75C843.75 447.9375 729.1875 270.8125 500 62.5zM531.25 625H625A31.25 31.25 0 1 0 625 562.5H531.25V468.75A31.25 31.25 0 0 0 468.75 468.75V562.5H375A31.25 31.25 0 0 0 375 625H468.75V718.75A31.25 31.25 0 0 0 531.25 718.75V625z" />
    <glyph glyph-name="ep:aim"
      unicode="&#xE002;"
      horiz-adv-x="1000" d="M500 125A375 375 0 1 1 500 875A375 375 0 0 1 500 125zM500 62.5A437.5 437.5 0 1 0 500 937.5A437.5 437.5 0 0 0 500 62.5zM500 906.25A31.25 31.25 0 0 0 531.25 875V687.5A31.25 31.25 0 0 0 468.75 687.5V875A31.25 31.25 0 0 0 500 906.25zM500 343.75A31.25 31.25 0 0 0 531.25 312.5V125A31.25 31.25 0 1 0 468.75 125V312.5A31.25 31.25 0 0 0 500 343.75zM93.75 500A31.25 31.25 0 0 0 125 531.25H312.5A31.25 31.25 0 0 0 312.5 468.75H125A31.25 31.25 0 0 0 93.75 500zM656.25 500A31.25 31.25 0 0 0 687.5 531.25H875A31.25 31.25 0 1 0 875 468.75H687.5A31.25 31.25 0 0 0 656.25 500z" />
    <glyph glyph-name="ep:alarm-clock"
      unicode="&#xE003;"
      horiz-adv-x="1000" d="M500 187.5A312.5 312.5 0 1 1 500 812.5A312.5 312.5 0 0 1 500 187.5zM500 125A375 375 0 1 0 500 875A375 375 0 0 0 500 125zM285.4375 194.75L339.5625 163.5L292.6875 82.3125A31.25 31.25 0 1 0 238.5625 113.5625L285.4375 194.75zM714.5625 194.75L660.4375 163.5L707.3125 82.3125A31.25 31.25 0 1 1 761.4375 113.5625L714.5625 194.75zM500 500H656.25A31.25 31.25 0 1 0 656.25 437.5H468.75A31.25 31.25 0 0 0 437.5 468.75V687.5A31.25 31.25 0 0 0 500 687.5V500zM88.375 695.0625A156.25 156.25 0 0 0 305 911.625L259.25 865.875A93.75 93.75 0 0 1 134.25 740.875L88.4375 695.0625zM904.0625 695.0625A156.25 156.25 0 0 1 687.5 911.625L733.25 865.875A93.75 93.75 0 0 0 858.25 740.875L904.0625 695.0625z" />
    <glyph glyph-name="ep:apple"
      unicode="&#xE004;"
      horiz-adv-x="1000" d="M585.8125 801A185 185 0 0 0 648.6875 805.5625L651.25 805.4375C681.6875 804.4375 701.25 801.4375 728.8749999999999 789.5C765.6249999999999 773.75 801.6249999999999 745.5 837.75 702.25C931.875 589.6875 918.5625 338.1875000000001 803.8125 192.7500000000001C796.3125000000001 183.2500000000001 772.5625 152.1250000000001 773.8125 153.75A416.6250000000001 416.6250000000001 0 0 0 744.4375 118.8125000000001C713.9375 87.0000000000001 680.6875 70.7500000000001 636.9374999999999 69.9375000000001C606.3124999999999 69.3125000000001 584.625 75.1250000000001 554.6249999999999 88.25L548.2499999999999 91.0625C527.7499999999999 100.0625 518.3749999999999 102.6875 502.0624999999998 102.6875C484.3749999999998 102.6875 474.1249999999998 99.875 452.1249999999998 90.3125L445.8124999999999 87.5625C418.0624999999999 75.6249999999999 398.6249999999999 69.9375 371.4374999999999 68.8125C299.0624999999999 66.125 257.2499999999999 106 194.9999999999999 197.8749999999999C100.6249999999999 336.625 65.4999999999999 539 141.2499999999999 672.8749999999999C186.4374999999999 752.8749999999999 268.1249999999999 803.3749999999999 356.7499999999999 804.7499999999999C388.8124999999999 805.3124999999999 415.6249999999999 798.0624999999999 454.0624999999999 782.5624999999999C480.5624999999999 771.9374999999999 487.9999999999999 769.1249999999999 490.5624999999999 768.6249999999999C506.4374999999999 788.3124999999999 517.6874999999999 804.7499999999999 524.3125 817.6874999999999C537.5625 843.3749999999999 550.875 876.2499999999999 564.0624999999999 916.1249999999998A31.25 31.25 0 1 0 623.4374999999999 896.3749999999999C611.1249999999999 859.3749999999999 598.6249999999999 827.6249999999999 585.8124999999999 800.9999999999999zM535.5 724.75C521.3125 707.375 504.4375 688.25 484.8125 667.3125A31.25 31.25 0 1 0 439.1875 710.0625L451.1874999999999 723C423.8125 733.9375 391.375 749.0625 357.75 748.5C289 747.4375 225.625 707.875 190.125 645.1875C118.75 518.9375 171.875 331.875 241.5 229.5C275.5 179.3750000000001 316.0625 123.0625000000001 369.375 125.0625000000001C420.625 127.125 440 158.9375000000001 502.0625000000001 158.9375000000001C564.1250000000001 158.9375000000001 581.4375 125.0625000000001 635.8125000000001 126.1875000000001C690.9375000000001 127.2500000000001 709.8125000000001 164.3125000000001 759.6875000000001 227.6250000000001C865.0625000000001 361.1875000000001 865.0625000000001 581.8750000000001 794.625 666.1875000000001C724.125 750.4375000000001 672.875 748.3125000000001 646.5000000000001 749.3125000000001C606.0000000000001 753.5000000000001 566.8125 737.0625000000001 535.5000000000001 724.7500000000001z" />
    <glyph glyph-name="ep:arrow-down"
      unicode="&#xE005;"
      horiz-adv-x="1000" d="M812.375 667.125L500 362.625L187.625 667.125A29.875 29.875 0 0 1 145.875 667.125A28.4375 28.4375 0 0 1 145.875 626.5L478.1875 302.5A31.25 31.25 0 0 1 521.8125 302.5L854.125 626.4375A28.4375 28.4375 0 0 1 854.125 667.1875A29.875 29.875 0 0 1 812.3750000000001 667.1875z" />
    <glyph glyph-name="ep:arrow-down-bold"
      unicode="&#xE006;"
      horiz-adv-x="1000" d="M102.25 669.1875A62.5 62.5 0 0 0 190.625 669.1875L500 359.8125L809.375 669.1875A62.5 62.5 0 0 0 897.7499999999999 580.8125L544.1875 227.25A62.5 62.5 0 0 0 455.8125000000001 227.25L102.25 580.8125A62.5 62.5 0 0 0 102.25 669.1875z" />
    <glyph glyph-name="ep:arrow-left"
      unicode="&#xE007;"
      horiz-adv-x="1000" d="M595.125 854.125L271.25 521.875A31.25 31.25 0 0 1 271.25 478.25L595.125 145.875A28.4375 28.4375 0 0 1 635.875 145.875A29.875 29.875 0 0 1 635.875 187.6249999999999L331.3125 500.0625L635.875 812.4375A29.875 29.875 0 0 1 635.875 854.125A28.4375 28.4375 0 0 1 595.125 854.125z" />
    <glyph glyph-name="ep:arrow-left-bold"
      unicode="&#xE008;"
      horiz-adv-x="1000" d="M669.1875 897.75A62.5 62.5 0 0 0 669.1875 809.375L359.8125 500L669.1875 190.625A62.5 62.5 0 0 0 580.8125000000001 102.2500000000001L227.25 455.8125A62.5 62.5 0 0 0 227.25 544.1875L580.8125 897.75A62.5 62.5 0 0 0 669.1874999999999 897.75z" />
    <glyph glyph-name="ep:arrow-right"
      unicode="&#xE009;"
      horiz-adv-x="1000" d="M332.875 854.1875A29.875 29.875 0 0 1 332.875 812.4375L637.4375 500L332.875 187.625A29.875 29.875 0 0 1 332.875 145.8750000000001A28.4375 28.4375 0 0 1 373.625 145.8750000000001L697.5 478.1875A31.25 31.25 0 0 1 697.5 521.8125L373.625 854.125A28.4375 28.4375 0 0 1 332.875 854.125z" />
    <glyph glyph-name="ep:arrow-right-bold"
      unicode="&#xE00A;"
      horiz-adv-x="1000" d="M330.8125 897.75A62.5 62.5 0 0 1 330.8125 809.375L640.1875 500L330.8125 190.625A62.5 62.5 0 0 1 419.1875 102.2500000000001L772.75 455.8125000000001A62.5 62.5 0 0 1 772.75 544.1875L419.1875 897.75A62.5 62.5 0 0 1 330.8125 897.75z" />
    <glyph glyph-name="ep:arrow-up"
      unicode="&#xE00B;"
      horiz-adv-x="1000" d="M477.375 663.75L145.5 315.4375A31.25 31.25 0 0 1 145.5 272.3125000000001L145.875 271.9375A28.75 28.75 0 0 1 187.5625 271.9375L500.0625000000001 599.9375L812.4375000000001 271.9375A28.75 28.75 0 0 1 854.1250000000001 271.9375L854.5000000000001 272.3125000000001A31.25 31.25 0 0 1 854.5000000000001 315.4375L522.625 663.75A31.25 31.25 0 0 1 477.375 663.75z" />
    <glyph glyph-name="ep:arrow-up-bold"
      unicode="&#xE00C;"
      horiz-adv-x="1000" d="M102.25 330.8125A62.5 62.5 0 0 1 190.625 330.8125L500 640.1875L809.375 330.8125A62.5 62.5 0 0 1 897.7499999999999 419.1874999999999L544.1875 772.75A62.5 62.5 0 0 1 455.8125000000001 772.75L102.25 419.1875A62.5 62.5 0 0 1 102.25 330.8125000000001z" />
    <glyph glyph-name="ep:avatar"
      unicode="&#xE00D;"
      horiz-adv-x="1000" d="M614 483.5A406.25 406.25 0 0 0 906.25 93.75H93.75A406.125 406.125 0 0 0 386 483.5L500 312.5L614 483.5zM703.125 703.125A203.125 203.125 0 1 0 296.875 703.125A203.125 203.125 0 0 0 703.125 703.125z" />
    <glyph glyph-name="ep:back"
      unicode="&#xE00E;"
      horiz-adv-x="1000" d="M218.75 531.25H843.75A31.25 31.25 0 1 0 843.75 468.75H218.75A31.25 31.25 0 0 0 218.75 531.25zM231.6875 500L490.875 240.875A31.25 31.25 0 0 0 446.625 196.6249999999999L165.375 477.8749999999999A31.25 31.25 0 0 0 165.375 522.125L446.625 803.375A31.25 31.25 0 1 0 490.875 759.125L231.6875 500z" />
    <glyph glyph-name="ep:baseball"
      unicode="&#xE00F;"
      horiz-adv-x="1000" d="M190.625 190.625A437.5 437.5 0 1 0 809.375 809.375A437.5 437.5 0 0 0 190.625 190.625zM234.8125 234.8125000000001A375 375 0 1 1 765.1875 765.1875000000001A375 375 0 0 1 234.8125 234.8125000000001zM485.8125 905.375C508.0625 900.8125 529.1874999999999 896.125 549.1874999999999 891.1875A250.125 250.125 0 0 1 891.1875 549.1875C896.1250000000001 529.1875 900.8125 508.0624999999999 905.375 485.8125A312.625 312.625 0 0 0 485.8125 905.375zM105.9375 519.625A312.625 312.625 0 0 0 519.625 105.8749999999999C497.125 109.4375 475.6875 113.1249999999999 455.4375 117.1249999999999A250.125 250.125 0 0 1 117.0625 455.4374999999999A1695.9375000000002 1695.9375000000002 0 0 0 105.9375 519.625z" />
    <glyph glyph-name="ep:basketball"
      unicode="&#xE010;"
      horiz-adv-x="1000" d="M760.5 230.25A373.5 373.5 0 0 1 873.8125 470.1249999999999A250.5 250.5 0 0 1 637.75 483.7499999999999A745 745 0 0 0 760.5000000000001 230.2499999999999zM706.75 187.0624999999999A683.25 683.25 0 0 1 584.625 450.375A250.125 250.125 0 0 1 529.875 126.1874999999999A373.75 373.75 0 0 1 706.75 187.0624999999999zM458.6249999999999 127.2499999999999A312.625 312.625 0 0 0 544.6875 498.4375A699.0625000000001 699.0625000000001 0 0 1 497.625 545.4375A312.625 312.625 0 0 0 127.25 459.125A373.4375 373.4375 0 0 1 234.8125 234.8125A373.4375 373.4375 0 0 1 458.6249999999999 127.3124999999999zM126.25 530.1875A250.125 250.125 0 0 1 449.5625 585.3125A683.25 683.25 0 0 1 187.0625 706.75A373.6875 373.6875 0 0 1 126.25 530.1875zM230.3125 760.5A745 745 0 0 0 482.9375 638.375A250.5 250.5 0 0 1 469.8125 873.8125A373.5 373.5 0 0 1 230.3125 760.5zM540.9375 872.75C580.5625 785.3125 577.8125 683.375 532.6875 598A761.5625 761.5625 0 0 0 597.3125 533.4375A313.3125 313.3125 0 0 0 872.8125 541.375A373.4375 373.4375 0 0 1 765.25 765.125A373.4375 373.4375 0 0 1 540.9999999999999 872.75zM809.375 190.625A437.5 437.5 0 1 0 190.625 809.375A437.5 437.5 0 0 0 809.375 190.625z" />
    <glyph glyph-name="ep:bell"
      unicode="&#xE011;"
      horiz-adv-x="1000" d="M500 937.5A62.5 62.5 0 0 0 562.5 875V812.5H437.5V875A62.5 62.5 0 0 0 500 937.5zM250 250H750V562.5A250 250 0 1 1 250 562.5V250zM500 875A312.5 312.5 0 0 0 812.5 562.5V187.5H187.5V562.5A312.5 312.5 0 0 0 500 875zM93.75 250H906.25Q937.5 250 937.5 218.75T906.25 187.5H93.75Q62.5 187.5 62.5 218.75T93.75 250zM437.5 125H562.5A62.5 62.5 0 0 0 437.5 125z" />
    <glyph glyph-name="ep:bell-filled"
      unicode="&#xE012;"
      horiz-adv-x="1000" d="M625 187.5A125 125 0 0 0 375 187.5H625zM812.5 250H131.25A37.5 37.5 0 0 0 131.25 325H187.5V562.5C187.5 713.75 295 840 437.8125 868.75A62.5 62.5 0 1 0 562.1875 868.75A312.625 312.625 0 0 0 812.5 562.5V325H868.75A37.5 37.5 0 0 0 868.75 250H812.5z" />
    <glyph glyph-name="ep:bicycle"
      unicode="&#xE013;"
      horiz-adv-x="1000" d="M250 187.5A125 125 0 1 1 250 437.5A125 125 0 0 1 250 187.5zM250 125A187.5 187.5 0 1 0 250 500A187.5 187.5 0 0 0 250 125zM281.25 343.75H593.75Q625 343.75 625 312.5T593.75 281.25H281.25Q250 281.25 250 312.5T281.25 343.75zM750 187.5A125 125 0 1 1 750 437.5A125 125 0 0 1 750 187.5zM750 125A187.5 187.5 0 1 0 750 500A187.5 187.5 0 0 0 750 125zM468.75 812.5A31.25 31.25 0 0 0 468.75 875H625A31.25 31.25 0 0 0 655.3125 851.3125L749.0625 476.3125A31.25 31.25 0 0 0 688.4374999999999 461.1875000000001L600.625 812.5H468.75zM93.75 625A31.25 31.25 0 0 0 93.75 687.5H218.75A31.25 31.25 0 0 0 248.375 666.125L310.875 478.6250000000001A31.25 31.25 0 1 0 251.625 458.875L196.25 625H93.75zM364.625 414.25L322.875 460.75L635.375 742L677.125 695.5z" />
    <glyph glyph-name="ep:bottom"
      unicode="&#xE014;"
      horiz-adv-x="1000" d="M531.25 213V835.9375A31.25 31.25 0 1 1 468.75 835.9375V213L240.875 455.125A30 30 0 0 1 196.625 455.125A34.6875 34.6875 0 0 1 196.625 408.1875L477.875 109.3125A30 30 0 0 1 522.125 109.3125L803.375 408.1875A34.6875 34.6875 0 0 1 803.375 455.0625A30 30 0 0 1 759.1249999999999 455.0625L531.25 213.0625z" />
    <glyph glyph-name="ep:bottom-left"
      unicode="&#xE015;"
      horiz-adv-x="1000" d="M250 250H656.25A31.25 31.25 0 1 0 656.25 187.5H218.75A31.25 31.25 0 0 0 187.5 218.75V656.25A31.25 31.25 0 0 0 250 656.25V250zM240.875 196.625A31.25 31.25 0 0 0 196.625 240.8750000000001L727.875 772.125A31.25 31.25 0 0 0 772.1250000000001 727.875L240.8750000000001 196.625z" />
    <glyph glyph-name="ep:bottom-right"
      unicode="&#xE016;"
      horiz-adv-x="1000" d="M343.75 250A31.25 31.25 0 1 1 343.75 187.5H781.25A31.25 31.25 0 0 1 812.5 218.75V656.25A31.25 31.25 0 0 1 750 656.25V250H343.75zM759.125 196.625A31.25 31.25 0 0 1 803.3750000000001 240.8750000000001L272.1250000000001 772.125A31.25 31.25 0 0 1 227.8750000000001 727.875L759.125 196.625z" />
    <glyph glyph-name="ep:bowl"
      unicode="&#xE017;"
      horiz-adv-x="1000" d="M697.6875 312.5A343.5 343.5 0 0 1 842.375 562.5H157.625A343.5 343.5 0 0 1 302.3125 312.5H697.6875zM281.25 251.375A405.9375 405.9375 0 0 0 93.75 593.75A31.25 31.25 0 0 0 125 625H875A31.25 31.25 0 0 0 906.25 593.75A405.9375 405.9375 0 0 0 718.75 251.375V187.5A62.5 62.5 0 0 0 656.25 125H343.75A62.5 62.5 0 0 0 281.25 187.5V251.375zM481.6875 687.5H393.3125L641.75 935.9375A31.25 31.25 0 1 0 685.9375000000001 891.75L481.6875 687.5zM664.625 687.5H539.625L803 839.5625A31.25 31.25 0 0 0 834.25 785.4375L664.625 687.5zM343.75 250V187.5H656.25V250H343.75z" />
    <glyph glyph-name="ep:box"
      unicode="&#xE018;"
      horiz-adv-x="1000" d="M309.625 875L125 664V125H875V664L690.375 875H309.625zM295.4375 937.5H704.5625A31.25 31.25 0 0 0 728.0625 926.875L929.75 696.3125A31.25 31.25 0 0 0 937.5 675.75V93.75A31.25 31.25 0 0 0 906.25 62.5H93.75A31.25 31.25 0 0 0 62.5 93.75V675.75A31.25 31.25 0 0 0 70.25 696.375L271.875 926.75A31.25 31.25 0 0 0 295.4375 937.5zM62.5 687.5H937.5V625H62.5zM437.5 679.8125V375H562.5V679.8125L513.75 875H486.25L437.5 679.8125zM437.5 937.5H562.5L625 687.5V343.75A31.25 31.25 0 0 0 593.75 312.5H406.25A31.25 31.25 0 0 0 375 343.75V687.5L437.5 937.5z" />
    <glyph glyph-name="ep:briefcase"
      unicode="&#xE019;"
      horiz-adv-x="1000" d="M312.5 687.5V875H687.5V687.5H875V500H125V687.5H312.5zM125 437.5H875V125H125V437.5zM375 687.5H625.0625000000001V812.5H375V687.5z" />
    <glyph glyph-name="ep:brush"
      unicode="&#xE01A;"
      horiz-adv-x="1000" d="M875 562.5H125V375A62.5 62.5 0 0 1 187.5 312.5H375V125H625V312.5H812.5A62.5 62.5 0 0 1 875 375V562.5zM122.3125000000001 625C122.3125000000001 671.4375 127.4375000000001 713.125 137.5 750C151.875 802.75 179.0000000000001 854.875 218.7500000000001 906.25H626.25L611.25 837.5625L718.75 906.25H925C900.75 864.375 884.0625000000001 812.25 875 750A648.3125 648.3125 0 0 1 869 625H937.5V375A125 125 0 0 0 812.5 250H687.5V93.75A31.25 31.25 0 0 0 656.25 62.5H343.75A31.25 31.25 0 0 0 312.5 93.75V250H187.5A125 125 0 0 0 62.5 375V625H122.3125zM184.8125000000001 625H806.4375C804.4375 669.75 806.6875 714.4375 813.125 759C817.5 789.125 823.5625 817.375 831.375 843.75H737L521.0625 705.8125L548.75 843.75H250.5C225.25 806.75 207.75 770.0625 197.8125 733.5625C189.25 702.25 184.875 666.0625 184.8125 625z" />
    <glyph glyph-name="ep:brush-filled"
      unicode="&#xE01B;"
      horiz-adv-x="1000" d="M593.75 312.5V156.25A93.75 93.75 0 0 0 406.25 156.25V312.5H312.5A125 125 0 0 0 187.5 437.5H812.5A125 125 0 0 0 687.5 312.5H593.75zM187.5 500V874.9375H812.5V500H187.5z" />
    <glyph glyph-name="ep:burger"
      unicode="&#xE01C;"
      horiz-adv-x="1000" d="M156.25 500A31.25 31.25 0 0 1 125 468.75V406.25A31.25 31.25 0 0 1 154.375 375H843.75A31.25 31.25 0 0 1 875 406.25V468.75A31.25 31.25 0 0 1 843.75 500H156.25zM875 557.1875A93.75 93.75 0 0 0 937.5 468.75V406.25A93.75 93.75 0 0 0 886.75 322.9375L835.3125 185.9375A93.75 93.75 0 0 0 747.5625 125.1249999999999H252.4375A93.75 93.75 0 0 0 164.6875 185.9375L113.3125 322.875A93.75 93.75 0 0 0 62.5 406.25V468.75A93.75 93.75 0 0 0 125 557.1875V562.5A375 375 0 1 0 875 557.1875zM812.5 562.5A312.5 312.5 0 0 1 187.5 562.5H812.5zM500 312.5H183.9375L223.1875 207.875A31.25 31.25 0 0 1 252.4375000000001 187.625H747.5625A31.25 31.25 0 0 1 776.8125 207.875L816.0625 312.5H500z" />
    <glyph glyph-name="ep:calendar"
      unicode="&#xE01D;"
      horiz-adv-x="1000" d="M125 625V125H875V812.5H750V781.25A31.25 31.25 0 1 0 687.5 781.25V812.5H312.5V781.25A31.25 31.25 0 0 0 250 781.25V812.5H125V687.5H875V625H125zM312.5 875H687.5V906.25A31.25 31.25 0 1 0 750 906.25V875H906.25A31.25 31.25 0 0 0 937.5 843.75V93.75A31.25 31.25 0 0 0 906.25 62.5H93.75A31.25 31.25 0 0 0 62.5 93.75V843.75A31.25 31.25 0 0 0 93.75 875H250V906.25A31.25 31.25 0 0 0 312.5 906.25V875zM281.25 500H343.75A31.25 31.25 0 0 0 343.75 437.5H281.25A31.25 31.25 0 0 0 281.25 500zM281.25 312.5H343.75A31.25 31.25 0 1 0 343.75 250H281.25A31.25 31.25 0 1 0 281.25 312.5zM468.75 500H531.25A31.25 31.25 0 0 0 531.25 437.5H468.75A31.25 31.25 0 0 0 468.75 500zM468.75 312.5H531.25A31.25 31.25 0 1 0 531.25 250H468.75A31.25 31.25 0 1 0 468.75 312.5zM656.25 500H718.75A31.25 31.25 0 1 0 718.75 437.5H656.25A31.25 31.25 0 1 0 656.25 500zM656.25 312.5H718.75A31.25 31.25 0 1 0 718.75 250H656.25A31.25 31.25 0 1 0 656.25 312.5z" />
    <glyph glyph-name="ep:camera"
      unicode="&#xE01E;"
      horiz-adv-x="1000" d="M875 750H125V187.5H875V750zM680.25 812.5L648.9375 875H351.1250000000001L319.8750000000001 812.5H680.25zM93.75 812.5H250L295.25 902.9375A62.5 62.5 0 0 0 351.125 937.5H648.9375A62.5 62.5 0 0 0 704.8125 903L750.1875 812.5H906.25A31.25 31.25 0 0 0 937.5 781.25V156.25A31.25 31.25 0 0 0 906.25 125H93.75A31.25 31.25 0 0 0 62.5 156.25V781.25A31.25 31.25 0 0 0 93.75 812.5zM500 312.5A156.25 156.25 0 1 1 500 625A156.25 156.25 0 0 1 500 312.5zM500 250A218.75 218.75 0 1 0 500 687.5A218.75 218.75 0 0 0 500 250z" />
    <glyph glyph-name="ep:camera-filled"
      unicode="&#xE01F;"
      horiz-adv-x="1000" d="M156.25 781.25A62.5 62.5 0 0 1 93.75 718.75V218.75A62.5 62.5 0 0 1 156.25 156.25H843.75A62.5 62.5 0 0 1 906.25 218.75V718.75A62.5 62.5 0 0 1 843.75 781.25H730.875L685.5 871.75A62.5 62.5 0 0 1 629.625 906.25H370.4375A62.5 62.5 0 0 1 314.5625 871.6875L269.3125 781.25H156.25zM500 356.25A112.5 112.5 0 1 1 500 581.25A112.5 112.5 0 0 1 500 356.25zM500 218.75A250 250 0 1 0 500 718.75A250 250 0 0 0 500 218.75z" />
    <glyph glyph-name="ep:caret-bottom"
      unicode="&#xE020;"
      horiz-adv-x="1000" d="M187.5 625L500 250L812.5 625z" />
    <glyph glyph-name="ep:caret-left"
      unicode="&#xE021;"
      horiz-adv-x="1000" d="M656.25 812.5L281.25 500.0625L656.25 187.5z" />
    <glyph glyph-name="ep:caret-right"
      unicode="&#xE022;"
      horiz-adv-x="1000" d="M375 812.5V187.5L750 500.0625z" />
    <glyph glyph-name="ep:caret-top"
      unicode="&#xE023;"
      horiz-adv-x="1000" d="M500 687.5L187.5 312.5H812.4375z" />
    <glyph glyph-name="ep:cellphone"
      unicode="&#xE024;"
      horiz-adv-x="1000" d="M250 875A62.5 62.5 0 0 1 187.5 812.5V187.5A62.5 62.5 0 0 1 250 125H750A62.5 62.5 0 0 1 812.5 187.5V812.5A62.5 62.5 0 0 1 750 875H250zM250 937.5H750A125 125 0 0 0 875 812.5V187.5A125 125 0 0 0 750 62.5H250A125 125 0 0 0 125 187.5V812.5A125 125 0 0 0 250 937.5zM375 812.5H625A31.25 31.25 0 1 0 625 750H375A31.25 31.25 0 0 0 375 812.5zM500 187.5A62.5 62.5 0 1 0 500 312.5A62.5 62.5 0 0 0 500 187.5z" />
    <glyph glyph-name="ep:chat-dot-round"
      unicode="&#xE025;"
      horiz-adv-x="1000" d="M170.625 164.375L302.75 208.4375L325.875 196.875C379 170.375 438.0625 156.25 500 156.25C706.875 156.25 875 319.125 875 500S706.875 843.75 500 843.75S125 680.875 125 500C125 432.5 149.375 364 194.1875 305.4375L215.75 277.3125000000001L170.5625 164.4375zM126.4375 83.75A31.25 31.25 0 0 0 87.5 125L144.5 267.5C92.5 335.625 62.5 417.125 62.5 500C62.5 707.125 250 906.25 500 906.25S937.5 707.125 937.5 500S750 93.75 500 93.75A450.25 450.25 0 0 0 297.9375 141L126.4375 83.8125000000001zM500 450A50 50 0 1 0 500 550A50 50 0 0 0 500 450zM687.5 450A50 50 0 1 0 687.5 550A50 50 0 0 0 687.5 450zM312.5 450A50 50 0 1 0 312.5 550A50 50 0 0 0 312.5 450z" />
    <glyph glyph-name="ep:chat-dot-square"
      unicode="&#xE026;"
      horiz-adv-x="1000" d="M267.125 281.25H781.25A62.5 62.5 0 0 1 843.75 343.75V750A62.5 62.5 0 0 1 781.25 812.5H218.75A62.5 62.5 0 0 1 156.25 750V192.5L267.125 281.25zM289.0625 218.75L144.5 103.125A31.25 31.25 0 0 0 93.75 127.5V750A125 125 0 0 0 218.75 875H781.25A125 125 0 0 0 906.25 750V343.75A125 125 0 0 0 781.25 218.75H289.0625zM500 512.5A50 50 0 1 0 500 612.5A50 50 0 0 0 500 512.5zM687.5 512.5A50 50 0 1 0 687.5 612.5A50 50 0 0 0 687.5 512.5zM312.5 512.5A50 50 0 1 0 312.5 612.5A50 50 0 0 0 312.5 512.5z" />
    <glyph glyph-name="ep:chat-line-round"
      unicode="&#xE027;"
      horiz-adv-x="1000" d="M170.625 164.375L302.75 208.4375L325.875 196.875C379 170.375 438.0625 156.25 500 156.25C706.875 156.25 875 319.125 875 500S706.875 843.75 500 843.75S125 680.875 125 500C125 432.5 149.375 364 194.1875 305.4375L215.75 277.3125000000001L170.5625 164.4375zM126.4375 83.75A31.25 31.25 0 0 0 87.5 125L144.5 267.5C92.5 335.625 62.5 417.125 62.5 500C62.5 707.125 250 906.25 500 906.25S937.5 707.125 937.5 500S750 93.75 500 93.75A450.25 450.25 0 0 0 297.9375 141L126.4375 83.8125000000001zM343.75 437.5H656.25Q687.5 437.5 687.5 406.25T656.25 375H343.75Q312.5 375 312.5 406.25T343.75 437.5zM375 625H625Q656.25 625 656.25 593.75T625 562.5H375Q343.75 562.5 343.75 593.75T375 625z" />
    <glyph glyph-name="ep:chat-line-square"
      unicode="&#xE028;"
      horiz-adv-x="1000" d="M156.25 192.5L267.125 281.25H781.25A62.5 62.5 0 0 1 843.75 343.75V750A62.5 62.5 0 0 1 781.25 812.5H218.75A62.5 62.5 0 0 1 156.25 750V192.5zM289.0625 218.75L144.5 103.125A31.25 31.25 0 0 0 93.75 127.5V750A125 125 0 0 0 218.75 875H781.25A125 125 0 0 0 906.25 750V343.75A125 125 0 0 0 781.25 218.75H289.0625zM343.75 500H656.25Q687.5 500 687.5 468.75T656.25 437.5H343.75Q312.5 437.5 312.5 468.75T343.75 500zM343.75 687.5H656.25Q687.5 687.5 687.5 656.25T656.25 625H343.75Q312.5 625 312.5 656.25T343.75 687.5z" />
    <glyph glyph-name="ep:chat-round"
      unicode="&#xE029;"
      horiz-adv-x="1000" d="M170.625 164.375L297.625 206.7500000000001L320.5 195.625C373.4375 169.9375 433.9375 156.25 500 156.25C718.5 156.25 875 312.3750000000001 875 500C875 688.3125 719.625 843.75 500 843.75S125 688.3125 125 500A333.125 333.125 0 0 1 192.625 300.5L213.75 272.375L170.625 164.4375zM126.4375 83.75A31.25 31.25 0 0 0 87.5 125L142.6875 262.9375A395.6250000000001 395.6250000000001 0 0 0 62.5 500C62.5 707.125 230.125 906.25 500 906.25S937.5 707.125 937.5 500S768.125 93.75 500 93.75C422.1875 93.75 352.6875 110.5 293.25 139.375L126.375 83.75z" />
    <glyph glyph-name="ep:chat-square"
      unicode="&#xE02A;"
      horiz-adv-x="1000" d="M267.125 281.25H781.25A62.5 62.5 0 0 1 843.75 343.75V750A62.5 62.5 0 0 1 781.25 812.5H218.75A62.5 62.5 0 0 1 156.25 750V192.5L267.125 281.25zM289.0625 218.75L144.5 103.125A31.25 31.25 0 0 0 93.75 127.5V750A125 125 0 0 0 218.75 875H781.25A125 125 0 0 0 906.25 750V343.75A125 125 0 0 0 781.25 218.75H289.0625z" />
    <glyph glyph-name="ep:check"
      unicode="&#xE02B;"
      horiz-adv-x="1000" d="M397.125 309.625L191.25 515.375A31.25 31.25 0 1 1 147.0625 471.1875L397.0625 221.1875L897.0625 721.1875A31.25 31.25 0 0 1 852.8749999999999 765.375L397.0625 309.625z" />
    <glyph glyph-name="ep:checked"
      unicode="&#xE02C;"
      horiz-adv-x="1000" d="M687.5 812.5H843.75V93.75H156.25V812.5H312.5625V750H687.5V812.5zM304.3125 475.3125L260.0625 431.125L436.875 254.375L746.2500000000001 563.75L702.0000000000001 607.875L436.875 342.75L304.3125 475.3125zM375 812.5V906.25H625V812.5H375z" />
    <glyph glyph-name="ep:cherry"
      unicode="&#xE02D;"
      horiz-adv-x="1000" d="M254.9375 560.9375C268.4375 629 289 686.875 316.8125 734.5C340 774.375 376.5 821.0625 426.4375 875H312.5A31.25 31.25 0 0 0 312.5 937.5H687.5A31.25 31.25 0 1 0 687.5 875H541.75C556.3125 836.75 582.125 790.4375 619.4375 736.5625C665.6875 669.6875 702.2499999999999 632.3125 723.25 624.9375A218.75 218.75 0 1 0 640.25 610.5C618.125 632.875 594.3125 663 568.0625 700.9375C530.1250000000001 755.75 502.625 804.25 485.6875000000001 846.75C431.6875000000001 789.875 393.3750000000001 741.75 370.6875000000001 703C348.0625000000001 664.1875 330.5625000000001 616.3125 318.3750000000001 559.375A218.8125 218.8125 0 1 0 254.9375000000001 560.9375000000001zM281.25 187.5A156.25 156.25 0 1 1 281.25 500A156.25 156.25 0 0 1 281.25 187.5zM718.75 250A156.25 156.25 0 1 1 718.75 562.5A156.25 156.25 0 0 1 718.75 250z" />
    <glyph glyph-name="ep:chicken"
      unicode="&#xE02E;"
      horiz-adv-x="1000" d="M341.75 299.8125L467.5 425.625A104.1875 104.1875 0 0 0 441.9375000000001 444.25A104.1875 104.1875 0 0 0 423.3125000000001 469.8125000000001L297.5625 344C298.3125 341 299 338 299.5625 335L301.5625 303.8124999999999L332.6875 301.8749999999999C335.7500000000001 301.2499999999999 338.7500000000001 300.6249999999999 341.75 299.8124999999999zM397.75 267.4375A125 125 0 1 0 186.5 155.6875L184.625 186.9375L153.375 188.8124999999999A125 125 0 1 0 265.125 400.0625L406.875 541.75C404.5 640.8125 463.625 775.25 552.4375 864.0625C657.25 968.875 778.3125 947.5625 861.8125000000001 864.0625C945.2500000000002 780.625 966.6250000000002 659.5625 861.8125000000001 554.6875C772.9375 465.9375 638.5000000000001 406.8125 539.4375 409.125L397.75 267.5zM486.125 488.4374999999999C534.5 440.0625 714 495.3124999999999 817.5625 598.875C893.9374999999999 675.2499999999999 879.3124999999999 758.125 817.5625 819.875C755.875 881.625 672.9999999999999 896.2499999999999 596.625 819.875C493.0625 716.3125 437.8125 536.75 486.125 488.4374999999999zM239.125 307.6875A62.5 62.5 0 1 1 180.6875 249.25L235.6875 252.6875L239.125 307.6875zM247 183A62.5 62.5 0 1 1 305.4375 241.4375000000001L250.4375000000001 238.0000000000001L247.0000000000001 183z" />
    <glyph glyph-name="ep:chrome-filled"
      unicode="&#xE02F;"
      horiz-adv-x="1000" d="M916.669921875 499.990234375C916.669921875 543.53515625 910.0097656249998 585.537109375 897.587890625 624.990234375H666.669921875A207.39453125 207.39453125 0 0 0 708.3398437499999 499.990234375C708.3984374999999 462.1875 698.1347656249999 425.087890625 678.6328125 392.6953125L500.009765625 83.3203124999999C730.13671875 83.3300781249999 916.6699218750002 269.8632812499999 916.6699218750002 499.990234375zM563.271484375 607.783203125A124.921875 124.921875 0 0 1 501.201171875 624.970703125C479.365234375 625.185546875 457.8515625000001 619.66796875 438.8085937500001 608.974609375S403.857421875 582.783203125 392.6660156250001 564.033203125A125.0048828125 125.0048828125 0 0 1 390.556640625 439.5800781250001L391.767578125 437.5000000000001A124.908203125 124.908203125 0 0 1 437.0410156250001 391.9824218750001A124.9091796875 124.9091796875 0 0 1 498.935546875 374.951171875C520.703125 374.755859375 542.138671875 380.25390625 561.123046875 390.8984375000001A124.94140625 124.94140625 0 0 1 607.177734375 435.615234375V435.625L608.26171875 437.5A124.984375 124.984375 0 0 1 608.544921875 561.97265625A124.9580078125 124.9580078125 0 0 1 563.271484375 607.783203125zM385.205078125 673.8671875A208.3359375 208.3359375 0 0 0 500 708.330078125H860.9179687499999A416.5068359375 416.5068359375 0 0 1 500 916.66015625A415.623046875 415.623046875 0 0 1 332.28515625 881.5234375A415.6679687500001 415.6679687500001 0 0 1 193.0078125 781.69921875L308.37890625 581.865234375A208.3955078125 208.3955078125 0 0 0 385.205078125 673.8671875zM500.009765625 83.3203124999999H500zM405.0390625 314.501953125A208.28515625 208.28515625 0 0 0 317.59765625 399.2773437499999L139.140625 708.3984375C103.642578125 647.060546875 83.349609375 575.8984375 83.349609375 499.98046875C83.349609375 300.9472656250001 222.9296875 134.53125 409.47265625 93.1933593750001H409.51171875L524.931640625 293.1054687500001A208.3154296875 208.3154296875 0 0 0 405.0390625 314.5019531250001z" />
    <glyph glyph-name="ep:circle-check"
      unicode="&#xE030;"
      horiz-adv-x="1000" d="M500 125A375 375 0 1 1 500 875A375 375 0 0 1 500 125zM500 62.5A437.5 437.5 0 1 0 500 937.5A437.5 437.5 0 0 0 500 62.5zM727.875 647.125A31.25 31.25 0 0 0 772.1250000000001 602.875L490.8750000000001 321.625A31.25 31.25 0 0 0 446.6250000000001 321.625L290.3750000000001 477.875A31.25 31.25 0 1 0 334.6250000000001 522.125L468.75 387.9375L727.875 647.125z" />
    <glyph glyph-name="ep:circle-check-filled"
      unicode="&#xE031;"
      horiz-adv-x="1000" d="M500 937.5A437.5 437.5 0 1 0 500 62.5A437.5 437.5 0 0 0 500 937.5zM445.5 413.6875L348.3125 510.9375A37.5 37.5 0 1 1 295.25 457.875L419.0000000000001 334.125A37.375 37.375 0 0 1 472.0625000000001 334.125L728.3125 590.4375A37.5 37.5 0 1 1 675.3125 643.5L445.5 413.6875z" />
    <glyph glyph-name="ep:circle-close"
      unicode="&#xE032;"
      horiz-adv-x="1000" d="M455.8125 500L367.4375 588.375A31.25 31.25 0 0 0 411.625 632.5625L500 544.1875L588.375 632.5625A31.25 31.25 0 1 0 632.5625 588.375L544.1875 500L632.5625 411.625A31.25 31.25 0 1 0 588.375 367.4375L500 455.8125L411.625 367.4375A31.25 31.25 0 0 0 367.4375 411.625L455.8125 500zM500 125A375 375 0 1 1 500 875A375 375 0 0 1 500 125zM500 62.5A437.5 437.5 0 1 0 500 937.5A437.5 437.5 0 0 0 500 62.5z" />
    <glyph glyph-name="ep:circle-close-filled"
      unicode="&#xE033;"
      horiz-adv-x="1000" d="M500 937.5A437.5 437.5 0 1 0 500 62.5A437.5 437.5 0 0 0 500 937.5zM500 553.0625L398.375 654.6875A37.5 37.5 0 1 1 345.3125 601.625L446.9375 500L345.3125 398.375A37.5 37.5 0 1 1 398.3750000000001 345.3125L500 446.9375L601.625 345.3125A37.5 37.5 0 1 1 654.6875 398.375L553.0625 500L654.6875 601.625A37.5 37.5 0 1 1 601.625 654.6875L500 553.0625z" />
    <glyph glyph-name="ep:circle-plus"
      unicode="&#xE034;"
      horiz-adv-x="1000" d="M343.75 531.25H656.25A31.25 31.25 0 1 0 656.25 468.75H343.75A31.25 31.25 0 0 0 343.75 531.25zM468.75 343.75V656.25A31.25 31.25 0 1 0 531.25 656.25V343.75A31.25 31.25 0 0 0 468.75 343.75zM500 125A375 375 0 1 1 500 875A375 375 0 0 1 500 125zM500 62.5A437.5 437.5 0 1 0 500 937.5A437.5 437.5 0 0 0 500 62.5z" />
    <glyph glyph-name="ep:circle-plus-filled"
      unicode="&#xE035;"
      horiz-adv-x="1000" d="M500 937.5A437.5 437.5 0 1 0 500 62.5A437.5 437.5 0 0 0 500 937.5zM462.5 537.5H318.75A37.5 37.5 0 1 1 318.75 462.5H462.4999999999999V318.7500000000001A37.5 37.5 0 0 1 537.5 318.7500000000001V462.5H681.2499999999999A37.5 37.5 0 0 1 681.2499999999999 537.5H537.5V681.25A37.5 37.5 0 1 1 462.4999999999999 681.25V537.5z" />
    <glyph glyph-name="ep:clock"
      unicode="&#xE036;"
      horiz-adv-x="1000" d="M500 125A375 375 0 1 1 500 875A375 375 0 0 1 500 125zM500 62.5A437.5 437.5 0 1 0 500 937.5A437.5 437.5 0 0 0 500 62.5zM468.75 750A31.25 31.25 0 0 0 500 718.75V468.75A31.25 31.25 0 0 0 437.5 468.75V718.75A31.25 31.25 0 0 0 468.75 750zM468.75 500H718.75Q750 500 750 468.75T718.75 437.5H468.75Q437.5 437.5 437.5 468.75T468.75 500z" />
    <glyph glyph-name="ep:close"
      unicode="&#xE037;"
      horiz-adv-x="1000" d="M746.375 790.4375L500 544.0625L253.625 790.4375A31.1875 31.1875 0 0 1 209.5625 746.375L455.8125 500L209.5 253.6875A31.1875 31.1875 0 1 1 253.5625 209.5625L500 455.875L746.375 209.5A31.1875 31.1875 0 0 1 790.4375 253.5625L544.0625 499.9375000000001L790.4375 746.375A31.1875 31.1875 0 1 1 746.375 790.5z" />
    <glyph glyph-name="ep:close-bold"
      unicode="&#xE038;"
      horiz-adv-x="1000" d="M190.625 809.375A62.5 62.5 0 0 0 279 809.375L500 588.375L721 809.375A62.5 62.5 0 0 0 809.375 721L588.375 500L809.375 279A62.5 62.5 0 0 0 721 190.625L500 411.625L279 190.625A62.5 62.5 0 0 0 190.6250000000001 279L411.625 500L190.625 721A62.5 62.5 0 0 0 190.625 809.375z" />
    <glyph glyph-name="ep:cloudy"
      unicode="&#xE039;"
      horiz-adv-x="1000" d="M584.375 187.625H320.5A250 250 0 0 0 286.8125 686.1875A343.75 343.75 0 1 0 584.375 187.625zM319.375 250.125H585.2499999999999A281.25 281.25 0 1 1 342.5625 658L327.1875 627.5L293.1875000000001 624A187.5 187.5 0 0 1 319.4375000000001 250.1249999999999z" />
    <glyph glyph-name="ep:coffee"
      unicode="&#xE03A;"
      horiz-adv-x="1000" d="M803.3125 812.5H817.25A31.25 31.25 0 0 0 848.125 786.375L868.9375 661.375A31.25 31.25 0 0 0 838.125 625H789.9375L751.8125 91.5A31.25 31.25 0 0 0 720.625 62.5H279.125A31.25 31.25 0 0 0 247.875 91.5L209.875 625H161.875A31.25 31.25 0 0 0 131.0625 661.375L151.875 786.375A31.25 31.25 0 0 0 182.75 812.5H196.4375L189.875 904A31.25 31.25 0 0 0 221.0625 937.5H778.6875A31.25 31.25 0 0 0 809.875 904L803.3125 812.5zM740.6875 812.5L745.1249999999999 875H254.625L259.0625 812.5H740.6875zM205.375 687.5H801.25L790.8125 750H209.1875L198.75 687.5H205.375zM272.5 625L308.1875 125H691.5625L727.25 625H272.5z" />
    <glyph glyph-name="ep:coffee-cup"
      unicode="&#xE03B;"
      horiz-adv-x="1000" d="M750 812.5A187.5 187.5 0 1 0 742.1875 437.6875A250.125 250.125 0 0 0 500 250H312.5A250 250 0 0 0 62.5 500V843.75A31.25 31.25 0 0 0 93.75 875H718.75A31.25 31.25 0 0 0 750 843.75V812.5zM750 750V500A125 125 0 1 1 750 750zM93.75 187.5H718.75A31.25 31.25 0 1 0 718.75 125H93.75A31.25 31.25 0 1 0 93.75 187.5zM125 812.5V500A187.5 187.5 0 0 1 312.5 312.5H500A187.5 187.5 0 0 1 687.5 500V812.5H125z" />
    <glyph glyph-name="ep:coin"
      unicode="&#xE03C;"
      horiz-adv-x="1000" d="M158.125 432.875L187.3125 375.375C167.3125 355.6875 156.25 334.25 156.25 312.5C156.25 232.125 307.9375 156.25 500 156.25S843.75 232.125 843.75 312.5C843.75 334.25 832.625 355.625 812.6875 375.3124999999999L842.4375 432.375C882.75 398.625 906.25 357.75 906.25 312.5C906.25 185.8124999999999 722.125 93.75 500 93.75S93.75 185.8125 93.75 312.5C93.75 358 117.5 399 158.125 432.875zM158.125 620.375L187.3125 562.875C167.3125 543.125 156.25 521.6875 156.25 500C156.25 419.625 307.9375 343.75 500 343.75S843.75 419.625 843.75 500C843.75 521.75 832.625 543.125 812.6875 562.8125L842.4375 619.875C882.75 586.125 906.25 545.25 906.25 500C906.25 373.3124999999999 722.125 281.25 500 281.25S93.75 373.3125 93.75 500C93.75 545.5 117.5 586.5 158.125 620.375zM500 468.75C277.875 468.75 93.75 560.8125 93.75 687.5S277.875 906.25 500 906.25S906.25 814.1875 906.25 687.5S722.125 468.75 500 468.75zM500 531.25C692.0625 531.25 843.75 607.125 843.75 687.5S692.0625 843.75 500 843.75S156.25 767.875 156.25 687.5S307.9375 531.25 500 531.25z" />
    <glyph glyph-name="ep:cold-drink"
      unicode="&#xE03D;"
      horiz-adv-x="1000" d="M750 937.5A187.5 187.5 0 1 0 681.6875 575.3125L468.75 291.625V125H562.5A31.25 31.25 0 1 0 562.5 62.5H312.5A31.25 31.25 0 1 0 312.5 125H406.25V291.625L75 732.875A62.5 62.5 0 0 0 62.5 770.375V780.8125A31.25 31.25 0 0 0 93.75 812.0625H163.875L99.875 893.9375A31.25 31.25 0 0 0 149.125 932.4375L243.125 812.0625H572.9375A187.5625 187.5625 0 0 0 750 937.5zM641.5 812.0625H781.25A31.25 31.25 0 0 0 812.5 780.8125V770.4375A62.5 62.5 0 0 0 800 732.9375L721.4375000000001 628.25A125 125 0 1 1 641.4375000000001 812V812.0625zM292 749.5625L418.4375 587.6875A31.25 31.25 0 0 0 369.1875 549.25L212.6875 749.5625H140.625L437.5 354.125L734.375 749.5625H292z" />
    <glyph glyph-name="ep:collection"
      unicode="&#xE03E;"
      horiz-adv-x="1000" d="M187.5 281.25H812.5V875H250A62.5 62.5 0 0 1 187.5 812.5V281.25zM250 937.5H843.75A31.25 31.25 0 0 0 875 906.25V250A31.25 31.25 0 0 0 843.75 218.75H156.25L125 162.5625V812.5A125 125 0 0 0 250 937.5zM234.375 218.75A46.875 46.875 0 1 1 234.375 125H812.5V218.75H234.375zM234.375 281.25H875V125A62.5 62.5 0 0 0 812.5 62.5H234.375A109.375 109.375 0 0 0 234.375 281.25zM375 875V630L468.75 705L562.5 630V875H375zM312.5 937.5H625V565A31.25 31.25 0 0 0 574.25 540.625L468.75 625L363.25 540.625A31.25 31.25 0 0 0 312.5 565V937.5z" />
    <glyph glyph-name="ep:collection-tag"
      unicode="&#xE03F;"
      horiz-adv-x="1000" d="M250 875V192.5L441.4375000000001 345.6875A93.75 93.75 0 0 0 558.5625000000001 345.6875L750 192.5625V875H250zM218.75 937.5H781.25A31.25 31.25 0 0 0 812.5 906.25V127.5A31.25 31.25 0 0 0 761.75 103.1249999999999L519.5 296.875A31.25 31.25 0 0 1 480.5 296.875L238.25 103.125A31.25 31.25 0 0 0 187.5 127.5V906.25A31.25 31.25 0 0 0 218.75 937.5z" />
    <glyph glyph-name="ep:comment"
      unicode="&#xE040;"
      horiz-adv-x="1000" d="M718.75 507.8125A54.6875 54.6875 0 1 0 718.75 617.1875A54.6875 54.6875 0 0 0 718.75 507.8125zM500 507.8125A54.6875 54.6875 0 1 0 500 617.1875A54.6875 54.6875 0 0 0 500 507.8125zM281.25 507.8125A54.6875 54.6875 0 1 0 281.25 617.1875A54.6875 54.6875 0 0 0 281.25 507.8125zM125 875V250H312.5V93.75L531.25 250H875V875H125z" />
    <glyph glyph-name="ep:compass"
      unicode="&#xE041;"
      horiz-adv-x="1000" d="M500 125A375 375 0 1 1 500 875A375 375 0 0 1 500 125zM500 62.5A437.5 437.5 0 1 0 500 937.5A437.5 437.5 0 0 0 500 62.5zM708.875 692.375C660.625 581.375 609.375 498.75 555.25 444.6875C501.1250000000001 390.5625 418.5625000000001 339.3125 307.6250000000001 291.0625A12.5 12.5 0 0 0 291.125 307.5C339.5 418.5625 390.7500000000001 501.125 444.7500000000001 555.1875C498.8125000000001 609.1875 581.375 660.4375 692.4375 708.8125A12.5 12.5 0 0 0 708.875 692.375z" />
    <glyph glyph-name="ep:connection"
      unicode="&#xE042;"
      horiz-adv-x="1000" d="M625 625V562.5H437.5A125 125 0 0 1 312.5 437.5V312.5A125 125 0 0 1 437.5 187.5H750A125 125 0 0 1 875 312.5V437.5A125 125 0 0 1 812.5 545.75V614.375C885.3125 588.625 937.5 519.1875 937.5 437.5625V312.5625A187.5 187.5 0 0 0 750 125.0625H437.5A187.5 187.5 0 0 0 250 312.5625V437.5A187.5 187.5 0 0 0 437.5 625H625zM375 375V437.5H562.5A125 125 0 0 1 687.5 562.5V687.5A125 125 0 0 1 562.5 812.5H250A125 125 0 0 1 125 687.5V562.5A125 125 0 0 1 187.5 454.25V385.625A187.5625 187.5625 0 0 0 62.5 562.5V687.5A187.5 187.5 0 0 0 250 875H562.5A187.5 187.5 0 0 0 750 687.5V562.5A187.5 187.5 0 0 0 562.5 375H375z" />
    <glyph glyph-name="ep:coordinate"
      unicode="&#xE043;"
      horiz-adv-x="1000" d="M468.75 500H531.25V187.5H468.75zM187.5 125H812.5A62.5 62.5 0 0 1 750 187.5H250A62.5 62.5 0 0 1 187.5 125zM250 250H750A125 125 0 0 0 875 125V62.5H125V125A125 125 0 0 0 250 250zM500 500A187.5 187.5 0 1 1 500 875A187.5 187.5 0 0 1 500 500zM500 437.5A250 250 0 1 0 500 937.5A250 250 0 0 0 500 437.5z" />
    <glyph glyph-name="ep:copy-document"
      unicode="&#xE044;"
      horiz-adv-x="1000" d="M750 187.5A125 125 0 0 0 625 62.5H187.5A125 125 0 0 0 62.5 187.5V625A125 125 0 0 0 187.5 750V687.5A62.5 62.5 0 0 1 125 625V187.5A62.5 62.5 0 0 1 187.5 125H625A62.5 62.5 0 0 1 687.5 187.5H750zM375 875A62.5 62.5 0 0 1 312.5 812.5V375A62.5 62.5 0 0 1 375 312.5H812.5A62.5 62.5 0 0 1 875 375V812.5A62.5 62.5 0 0 1 812.5 875H375zM375 937.5H812.5A125 125 0 0 0 937.5 812.5V375A125 125 0 0 0 812.5 250H375A125 125 0 0 0 250 375V812.5A125 125 0 0 0 375 937.5z" />
    <glyph glyph-name="ep:cpu"
      unicode="&#xE045;"
      horiz-adv-x="1000" d="M312.5 750A62.5 62.5 0 0 1 250 687.5V312.5A62.5 62.5 0 0 1 312.5 250H687.5A62.5 62.5 0 0 1 750 312.5V687.5A62.5 62.5 0 0 1 687.5 750H312.5zM312.5 812.5H687.5A125 125 0 0 0 812.5 687.5V312.5A125 125 0 0 0 687.5 187.5H312.5A125 125 0 0 0 187.5 312.5V687.5A125 125 0 0 0 312.5 812.5zM500 937.5A31.25 31.25 0 0 0 531.25 906.25V781.25H468.75V906.25A31.25 31.25 0 0 0 500 937.5zM656.25 937.5A31.25 31.25 0 0 0 687.5 906.25V781.25H625V906.25A31.25 31.25 0 0 0 656.25 937.5zM343.75 937.5A31.25 31.25 0 0 0 375 906.25V781.25H312.5V906.25A31.25 31.25 0 0 0 343.75 937.5zM500 62.5A31.25 31.25 0 0 0 468.75 93.75V218.75H531.25V93.75A31.25 31.25 0 0 0 500 62.5zM656.25 62.5A31.25 31.25 0 0 0 625 93.75V218.75H687.5V93.75A31.25 31.25 0 0 0 656.25 62.5zM343.75 62.5A31.25 31.25 0 0 0 312.5 93.75V218.75H375V93.75A31.25 31.25 0 0 0 343.75 62.5zM62.5 500A31.25 31.25 0 0 0 93.75 531.25H218.75V468.75H93.75A31.25 31.25 0 0 0 62.5 500zM62.5 656.25A31.25 31.25 0 0 0 93.75 687.5H218.75V625H93.75A31.25 31.25 0 0 0 62.5 656.25zM62.5 343.75A31.25 31.25 0 0 0 93.75 375H218.75V312.5H93.75A31.25 31.25 0 0 0 62.5 343.75zM937.5 500A31.25 31.25 0 0 0 906.25 468.75H781.25V531.25H906.25A31.25 31.25 0 0 0 937.5 500zM937.5 656.25A31.25 31.25 0 0 0 906.25 625H781.25V687.5H906.25A31.25 31.25 0 0 0 937.5 656.25zM937.5 343.75A31.25 31.25 0 0 0 906.25 312.5H781.25V375H906.25A31.25 31.25 0 0 0 937.5 343.75z" />
    <glyph glyph-name="ep:credit-card"
      unicode="&#xE046;"
      horiz-adv-x="1000" d="M875 683.5C875 724.875 872.5625 737.5 865.6875 750.375A51.125 51.125 0 0 1 844.0625 771.9375C831.25 778.8125 818.625 781.25 777.25 781.25H222.75C181.375 781.25 168.75 778.8125 155.875 771.9375A51.125 51.125 0 0 1 134.3125 750.3125C127.4375 737.5 125 724.875 125 683.5V316.5C125 275.125 127.4375 262.5 134.3125 249.625A51.125 51.125 0 0 1 155.9375 228.0625C168.75 221.1875 181.375 218.75 222.75 218.75H777.25C818.625 218.75 831.25 221.1875 844.125 228.0625A51.125 51.125 0 0 1 865.6875 249.6875C872.5625 262.5 875 275.125 875 316.5V683.5zM937.5 683.5V316.5C937.5 260.75 931.6875 240.5625 920.8125 220.25C909.9375000000002 199.8125000000001 893.9375 183.8125 873.5625 172.9375000000001C853.1875 162.0625000000001 832.9375 156.2500000000001 777.3125000000001 156.2500000000001H222.6875C166.9375 156.2500000000001 146.75 162.0625000000001 126.4375 172.9375000000001A113.5625 113.5625 0 0 0 79.125 220.1875000000001C68.25 240.5625000000001 62.4375 260.8125000000001 62.4375 316.4375000000001V683.5625C62.4375 739.3125 68.25 759.5 79.125 779.8125C90 800.25 106 816.25 126.375 827.125C146.75 838 167 843.8125 222.625 843.8125H777.1875C832.9375 843.8125 853.125 838 873.4375000000001 827.125C893.8750000000001 816.25 909.8750000000002 800.25 920.7500000000002 779.875C931.625 759.5 937.4375 739.25 937.4375 683.625zM62.5 687.5H937.5V625H62.5V687.5zM62.5 562.5H937.5V500H62.5V562.5zM187.5 375H437.5V312.5H187.5z" />
    <glyph glyph-name="ep:crop"
      unicode="&#xE047;"
      horiz-adv-x="1000" d="M250 250H906.25A31.25 31.25 0 1 0 906.25 187.5H218.75A31.25 31.25 0 0 0 187.5 218.75V906.25A31.25 31.25 0 0 0 250 906.25V250zM812.5 781.25V93.75A31.25 31.25 0 1 0 750 93.75V750H93.75A31.25 31.25 0 0 0 93.75 812.5H781.25A31.25 31.25 0 0 0 812.5 781.25z" />
    <glyph glyph-name="ep:d-arrow-left"
      unicode="&#xE048;"
      horiz-adv-x="1000" d="M517 854.125A28.4375 28.4375 0 0 0 557.75 854.125A29.875 29.875 0 0 0 557.75 812.4375L253.1875 500.0625L557.75 187.625A29.875 29.875 0 0 0 557.25 145.375A28.4375 28.4375 0 0 0 517 145.875L193.125 478.25A31.25 31.25 0 0 0 193.125 521.875L517 854.125zM767 854.125A28.4375 28.4375 0 0 0 807.75 854.125A29.875 29.875 0 0 0 807.75 812.4375L503.1875 500.0625L807.75 187.625A29.875 29.875 0 0 0 807.25 145.375A28.4375 28.4375 0 0 0 767 145.875L443.125 478.25A31.25 31.25 0 0 0 443.125 521.875L767 854.125z" />
    <glyph glyph-name="ep:d-arrow-right"
      unicode="&#xE049;"
      horiz-adv-x="1000" d="M442.25 854.1875A28.4375 28.4375 0 0 0 483 854.125L806.875 521.8125A31.25 31.25 0 0 0 806.875 478.1875L483 145.875A28.4375 28.4375 0 0 0 442.25 145.875A29.875 29.875 0 0 0 442.25 187.6249999999999L746.8125 500L442.25 812.5A29.875 29.875 0 0 0 442.25 854.1875zM192.25 854.1875A28.4375 28.4375 0 0 0 233 854.125L556.875 521.8125A31.25 31.25 0 0 0 556.875 478.1875L233 145.875A28.4375 28.4375 0 0 0 192.25 145.875A29.875 29.875 0 0 0 192.25 187.6249999999999L496.8125 500L192.25 812.5A29.875 29.875 0 0 0 192.25 854.1875z" />
    <glyph glyph-name="ep:d-caret"
      unicode="&#xE04A;"
      horiz-adv-x="1000" d="M500 875L781.25 562.5H218.75L500 875zM218.75 437.5H781.25L500 125L218.75 437.5z" />
    <glyph glyph-name="ep:data-analysis"
      unicode="&#xE04B;"
      horiz-adv-x="1000" d="M649.625 250L757.875 62.5H685.75L577.5 250H422.875L314.625 62.5H242.5L350.75 250H156.25A31.25 31.25 0 0 0 125 281.25V812.5H62.5A31.25 31.25 0 0 0 62.5 875H937.5A31.25 31.25 0 1 0 937.5 812.5H875V281.25A31.25 31.25 0 0 0 843.75 250H649.625zM812.5 812.5H187.5V312.5H812.5V812.5zM343.75 562.5A31.25 31.25 0 0 0 375 531.25V468.75A31.25 31.25 0 0 0 312.5 468.75V531.25A31.25 31.25 0 0 0 343.75 562.5zM500 625A31.25 31.25 0 0 0 531.25 593.75V468.75A31.25 31.25 0 0 0 468.75 468.75V593.75A31.25 31.25 0 0 0 500 625zM656.25 687.5A31.25 31.25 0 0 0 687.5 656.25V468.75A31.25 31.25 0 1 0 625 468.75V656.25A31.25 31.25 0 0 0 656.25 687.5z" />
    <glyph glyph-name="ep:data-board"
      unicode="&#xE04C;"
      horiz-adv-x="1000" d="M31.25 875H968.75V812.5H31.25zM187.5 812.5V312.5H812.5V812.5H187.5zM125 875H875V281.25A31.25 31.25 0 0 0 843.75 250H156.25A31.25 31.25 0 0 0 125 281.25V875zM314.625 62.5H242.5L383.75 307.1875L437.875 275.9375L314.625 62.5zM757.875 62.5H685.75L562.5 275.9375L616.625 307.1875L757.875 62.5z" />
    <glyph glyph-name="ep:data-line"
      unicode="&#xE04D;"
      horiz-adv-x="1000" d="M350.75 250H156.25A31.25 31.25 0 0 0 125 281.25V812.5H62.5A31.25 31.25 0 0 0 62.5 875H937.5A31.25 31.25 0 1 0 937.5 812.5H875V281.25A31.25 31.25 0 0 0 843.75 250H649.625L757.875 62.5H685.75L577.5 250H422.875L314.625 62.5H242.5L350.75 250zM812.5 812.5H187.5V312.5H812.5V812.5zM334.625 477.875A31.25 31.25 0 1 0 290.375 522.125L434.5625 666.25L557.0625 574.375L663.125 707A31.25 31.25 0 1 0 711.8749999999999 668L568 488.0624999999999L440.4375 583.75L334.625 477.9375z" />
    <glyph glyph-name="ep:delete"
      unicode="&#xE04E;"
      horiz-adv-x="1000" d="M156.25 750H93.75A31.25 31.25 0 0 0 93.75 812.5H343.75V906.3125A31.25 31.25 0 0 0 375 937.5625H625A31.25 31.25 0 0 0 656.25 906.3125V812.5H906.25A31.25 31.25 0 1 0 906.25 750H843.75V93.75A31.25 31.25 0 0 0 812.5 62.5H187.5A31.25 31.25 0 0 0 156.25 93.75V750zM593.75 812.5V875H406.25V812.5H593.75zM218.75 125H781.25V750H218.75V125zM406.25 250A31.25 31.25 0 0 0 375 281.25V593.75A31.25 31.25 0 0 0 437.5 593.75V281.25A31.25 31.25 0 0 0 406.25 250zM593.75 250A31.25 31.25 0 0 0 562.5 281.25V593.75A31.25 31.25 0 0 0 625 593.75V281.25A31.25 31.25 0 0 0 593.75 250z" />
    <glyph glyph-name="ep:delete-filled"
      unicode="&#xE04F;"
      horiz-adv-x="1000" d="M343.75 812.5V906.3125A31.25 31.25 0 0 0 375 937.5625H625A31.25 31.25 0 0 0 656.25 906.3125V812.5H906.25A31.25 31.25 0 1 0 906.25 750H93.75A31.25 31.25 0 0 0 93.75 812.5H343.75zM406.25 812.5H593.75V875H406.25V812.5zM187.5 62.5A31.25 31.25 0 0 0 156.25 93.75V750H843.75V93.75A31.25 31.25 0 0 0 812.5 62.5H187.5zM406.25 250A31.25 31.25 0 0 1 437.5 281.25V593.75A31.25 31.25 0 0 1 375 593.75V281.25A31.25 31.25 0 0 1 406.25 250zM593.75 250A31.25 31.25 0 0 1 625 281.25V593.75A31.25 31.25 0 0 1 562.5 593.75V281.25A31.25 31.25 0 0 1 593.75 250z" />
    <glyph glyph-name="ep:delete-location"
      unicode="&#xE050;"
      horiz-adv-x="1000" d="M281.25 125H718.75Q750 125 750 93.75T718.75 62.5H281.25Q250 62.5 250 93.75T281.25 125zM781.25 593.75A281.25 281.25 0 1 1 218.75 593.75C218.75 478.375 311.0625 328.0000000000001 500 147.875C688.9375 328 781.25 478.375 781.25 593.75zM500 62.5C270.8125 270.8125 156.25 447.9375 156.25 593.75A343.75 343.75 0 0 0 843.75 593.75C843.75 447.9375 729.1875 270.8125 500 62.5zM375 625H625Q656.25 625 656.25 593.75T625 562.5H375Q343.75 562.5 343.75 593.75T375 625z" />
    <glyph glyph-name="ep:dessert"
      unicode="&#xE051;"
      horiz-adv-x="1000" d="M125 593.75V640.625A140.625 140.625 0 0 0 289.6875 779.1875A218.875 218.875 0 0 0 710.3125 779.1875A140.625 140.625 0 0 0 875 640.625V593.75A375 375 0 0 0 531.25 220V125H468.75V220A375 375 0 0 0 125 593.75zM405.375 625.0625H594.625A140.4375 140.4375 0 0 0 652.125 754.6875A156.3125 156.3125 0 0 1 347.875 754.6875A140.4375 140.4375 0 0 0 405.375 625zM334.1875 625.0625A70.3125 70.3125 0 1 1 197 625.0625H334.1875zM665.8124999999999 625.0625H802.9374999999999A70.3125 70.3125 0 1 1 665.7499999999999 625.0625zM500 281.25A312.5 312.5 0 0 1 810.9375 562.5625H189.0625A312.5 312.5 0 0 1 500 281.25zM375 124.9375H625A31.25 31.25 0 1 0 625 62.4375H375A31.25 31.25 0 1 0 375 124.9375z" />
    <glyph glyph-name="ep:discount"
      unicode="&#xE052;"
      horiz-adv-x="1000" d="M218.75 312.5H781.25V689.125L539.5625 886.875A62.5 62.5 0 0 1 460.4374999999999 886.875L218.75 689.125V312.5zM218.75 250V125H781.25V250H218.75zM579.125 935.25L832.2499999999999 728.125A31.25 31.25 0 0 0 843.75 703.9375V93.75A31.25 31.25 0 0 0 812.5 62.5H187.5A31.25 31.25 0 0 0 156.25 93.75V703.9375A31.25 31.25 0 0 0 167.6875 728.125L420.8125 935.25A125 125 0 0 0 579.125 935.25zM500 562.5A62.5 62.5 0 1 1 500 687.5A62.5 62.5 0 0 1 500 562.5zM500 500A125 125 0 1 0 500 750A125 125 0 0 0 500 500z" />
    <glyph glyph-name="ep:dish"
      unicode="&#xE053;"
      horiz-adv-x="1000" d="M468.75 748.875V812.5H375A31.25 31.25 0 0 0 375 875H625A31.25 31.25 0 1 0 625 812.5H531.25V748.875A437.5 437.5 0 0 0 933.125 250H66.875A437.5 437.5 0 0 0 468.75 748.875zM125 312.5H875A375 375 0 1 1 125 312.5zM93.75 187.5H906.25A31.25 31.25 0 1 0 906.25 125H93.75A31.25 31.25 0 1 0 93.75 187.5z" />
    <glyph glyph-name="ep:dish-dot"
      unicode="&#xE054;"
      horiz-adv-x="1000" d="M375.0625 731.875L375.1250000000001 781.375A125 125 0 0 0 500.1250000000001 906.25C569.0000000000001 906.25 624.8125 850.4375 624.8125 781.5625V732A437.6875 437.6875 0 0 0 933 250H66.9375A437.6875 437.6875 0 0 0 375 731.875zM93.75 187.5H906.25A31.25 31.25 0 1 0 906.25 125H93.75A31.25 31.25 0 1 0 93.75 187.5zM125 312.5H875A375 375 0 1 1 125 312.5zM562.3125 750V781.5625A62.1875 62.1875 0 0 1 500.1250000000001 843.75A62.5 62.5 0 0 1 437.6250000000001 781.3125V750H562.3125z" />
    <glyph glyph-name="ep:document"
      unicode="&#xE055;"
      horiz-adv-x="1000" d="M812.5 625H562.5V875H187.5V125H812.5V625zM786.625 687.5L625 849.125V687.5H786.625zM156.25 937.5H625L875 687.5V93.75A31.25 31.25 0 0 0 843.75 62.5H156.25A31.25 31.25 0 0 0 125 93.75V906.25A31.25 31.25 0 0 0 156.25 937.5zM312.5 500H687.5V437.5H312.5V500zM312.5 687.5H468.75V625H312.5V687.5zM312.5 312.5H687.5V250H312.5V312.5z" />
    <glyph glyph-name="ep:document-add"
      unicode="&#xE056;"
      horiz-adv-x="1000" d="M812.5 625H562.5V875H187.5V125H812.5V625zM786.625 687.5L625 849.125V687.5H786.625zM156.25 937.5H625L875 687.5V93.75A31.25 31.25 0 0 0 843.75 62.5H156.25A31.25 31.25 0 0 0 125 93.75V906.25A31.25 31.25 0 0 0 156.25 937.5zM468.75 437.5V562.5H531.25V437.5H656.25V375H531.25V250H468.75V375H343.75V437.5H468.75z" />
    <glyph glyph-name="ep:document-checked"
      unicode="&#xE057;"
      horiz-adv-x="1000" d="M786.625 687.5L625 849.125V687.5H786.625zM812.5 625H562.5V875H187.5V125H812.5V625zM156.25 937.5H625L875 687.5V93.75A31.25 31.25 0 0 0 843.75 62.5H156.25A31.25 31.25 0 0 0 125 93.75V906.25A31.25 31.25 0 0 0 156.25 937.5zM467.1875 369L643.9374999999999 545.75L688.125 501.5625L467.1875 280.625L312.5 435.25L356.6875 479.5L467.1875 369z" />
    <glyph glyph-name="ep:document-copy"
      unicode="&#xE058;"
      horiz-adv-x="1000" d="M125 687.5V125H687.5V687.5H125zM93.75 750H718.75A31.25 31.25 0 0 0 750 718.75V93.75A31.25 31.25 0 0 0 718.75 62.5H93.75A31.25 31.25 0 0 0 62.5 93.75V718.75A31.25 31.25 0 0 0 93.75 750zM937.5 906.25V218.75A31.25 31.25 0 0 0 906.25 187.5H812.5V250H875V875H375V812.5H312.5V906.25A31.25 31.25 0 0 0 343.75 937.5H906.25A31.25 31.25 0 0 0 937.5 906.25zM250 343.75H562.5V281.25H250V343.75zM250 531.25H562.5V468.75H250V531.25z" />
    <glyph glyph-name="ep:document-delete"
      unicode="&#xE059;"
      horiz-adv-x="1000" d="M786.625 687.5L625 849.125V687.5H786.625zM812.5 625H562.5V875H187.5V125H812.5V625zM156.25 937.5H625L875 687.5V93.75A31.25 31.25 0 0 0 843.75 62.5H156.25A31.25 31.25 0 0 0 125 93.75V906.25A31.25 31.25 0 0 0 156.25 937.5zM458 404L369.6250000000001 492.5000000000001L413.8125 536.6875L502.2500000000001 448.3125L590.6250000000001 536.625L634.8125000000001 492.4375L546.4375000000001 403.9999999999999L634.8125000000001 315.6249999999999L590.6250000000001 271.4374999999999L502.2500000000001 359.8124999999999L413.8125000000001 271.4374999999999L369.6250000000001 315.6249999999999L458.0000000000001 403.9999999999999z" />
    <glyph glyph-name="ep:document-remove"
      unicode="&#xE05A;"
      horiz-adv-x="1000" d="M786.625 687.5L625 849.125V687.5H786.625zM812.5 625H562.5V875H187.5V125H812.5V625zM156.25 937.5H625L875 687.5V93.75A31.25 31.25 0 0 0 843.75 62.5H156.25A31.25 31.25 0 0 0 125 93.75V906.25A31.25 31.25 0 0 0 156.25 937.5zM343.75 437.5H656.25V375H343.75V437.5z" />
    <glyph glyph-name="ep:download"
      unicode="&#xE05B;"
      horiz-adv-x="1000" d="M156.25 187.5H843.75A31.25 31.25 0 1 0 843.75 125H156.25A31.25 31.25 0 1 0 156.25 187.5zM531.25 435.25L762 666.0625L806.1875 621.875L496.875 312.5L187.5 621.875L231.6875 666.0625L468.75 429V875H531.25V435.25z" />
    <glyph glyph-name="ep:drizzling"
      unicode="&#xE05C;"
      horiz-adv-x="1000" d="M722 715.5L687.6249999999999 721.9375L675.125 754.5625A187.5625 187.5625 0 0 1 317.75 731.875L308.0625 691.9375L267.5625 685.0625A172.1875 172.1875 0 0 1 124.75 515.5625C124.75 420.5625000000001 201.625 343.75 296.4375 343.75H687.0624999999999A187.5 187.5 0 0 1 721.9999999999999 715.5zM937.0625 531.25A250 250 0 0 0 687.0625 281.25H296.4375A234.1875 234.1875 0 0 0 62.25 515.4375A234.6875 234.6875 0 0 0 257.0625 746.6875A250.125 250.125 0 0 0 733.5 776.9375A250.0625000000001 250.0625000000001 0 0 0 937.0625 531.25zM281.25 218.75H343.75V156.25H281.25V218.75zM468.75 218.75H531.25V156.25H468.75V218.75zM375 125H437.5V62.5H375V125zM562.5 125H625V62.5H562.5V125zM656.25 218.75H718.75V156.25H656.25V218.75z" />
    <glyph glyph-name="ep:edit"
      unicode="&#xE05D;"
      horiz-adv-x="1000" d="M812.5 500A31.25 31.25 0 1 0 875 500V156.25A31.25 31.25 0 0 0 843.75 125H156.25A31.25 31.25 0 0 0 125 156.25V843.75A31.25 31.25 0 0 0 156.25 875H500A31.25 31.25 0 0 0 500 812.5H187.5V187.5H812.5V500zM458.9375 458.75L510.4999999999999 466.125L827.25 782.8125A31.25 31.25 0 1 1 783.0625 827L466.25 510.3125L458.875 458.75zM871.4375 871.25A93.75 93.75 0 0 0 871.4375 738.625L547.375 414.5625A31.25 31.25 0 0 0 529.6875 405.6875L426.5625 390.9375A31.25 31.25 0 0 0 391.1875 426.3125000000001L405.9375 529.4375000000001A31.25 31.25 0 0 0 414.75 547.1250000000001L738.875 871.1875000000001A93.75 93.75 0 0 0 871.4375 871.1875000000001z" />
    <glyph glyph-name="ep:edit-pen"
      unicode="&#xE05E;"
      horiz-adv-x="1000" d="M194.375 343.125L383.8125 233.75L602.5625 612.625L413.1875000000001 722L194.4375 343.0625zM171.0625 284.375L203.1875 139.5625L344.6875000000001 184.1875000000001L171.0625 284.375zM444.375 776.125L633.75 666.75L689.125 762.5625L499.6874999999999 871.9375L444.375 776.125zM101.875 307.8125L476.875 957.25L774.5 785.4375L399.5625 135.9375H399.625L157 59.4375L101.875 307.8125zM476.875 59.5000000000001V122.0000000000001H914.3749999999998V59.5000000000001H476.8749999999999z" />
    <glyph glyph-name="ep:eleme"
      unicode="&#xE05F;"
      horiz-adv-x="1000" d="M293 815.625C463.6249999999999 926.25 691.4374999999999 877.5 802.9999999999999 708.75C808.6249999999999 698.4375 814.2499999999999 689.0625 819.8749999999999 678.75V677.8125A21.875 21.875 0 0 0 812.375 651.5625L468.3124999999999 428.4375C458.9374999999999 421.875 446.75 424.6875 440.1875 434.0625L422.375 461.25A53.0625 53.0625 0 0 0 438.3125 534.375L658.6249999999999 677.8125C667.9999999999999 684.375 670.8124999999999 696.5625 664.2499999999999 705.9375C663.3124999999999 707.8125 662.3749999999999 709.6875 660.4999999999999 710.625A261.5625 261.5625 0 0 1 352.0624999999999 727.5C231.1249999999999 647.8125 196.4374999999999 485.625 275.1875 364.6875A261.8125 261.8125 0 0 1 637.0624999999999 287.8125A53.0625 53.0625 0 0 0 710.1874999999999 271.875L727.0624999999999 245.625C732.6874999999998 236.25 730.8124999999999 225 722.3749999999999 218.4375C713.9374999999999 210.9375 704.5624999999999 204.375 694.2499999999999 197.8125A369.0625 369.0625 0 0 0 184.2499999999999 305.6249999999999C73.6249999999999 476.25 122.3749999999999 704.0625 293 815.625zM806.7500000000001 517.5A21.8125 21.8125 0 0 0 834.875 511.875L857.375 477.1875A61.75 61.75 0 0 0 839.5625 391.875L804.875 369.375C795.5 362.8125 783.3125 365.625 776.75 375L731.75 444.375C725.1875 453.75 728 465.9375 737.375 472.4999999999999L806.75 517.4999999999999z" />
    <glyph glyph-name="ep:eleme-filled"
      unicode="&#xE060;"
      horiz-adv-x="1000" d="M171.875 937.5H828.125C888.5 937.5 937.5 888.5 937.5 828.125V171.875A109.375 109.375 0 0 0 828.125 62.5H171.875A109.375 109.375 0 0 0 62.5 171.875V828.125C62.5 888.5 111.5 937.5 171.875 937.5zM318.875 768C169.5625 670.375 126.9375 471.0624999999999 223.75 321.75A322.9375 322.9375 0 0 1 669.9999999999999 227.375C678.9999999999999 233.125 687.1875 238.875 694.5625 245.4999999999999A17.8125 17.8125 0 0 1 698.6875 269.25L683.9375 292.1875A46.4375 46.4375 0 0 1 619.9375 306.1250000000001A229.0625 229.0625 0 0 0 303.3125 373.4375C234.375 479.25 264.75 621.125 370.5625 690.9375A228.8125 228.8125 0 0 0 640.4375 676.125C642.0625 675.3125 642.9374999999999 673.625 643.75 672C649.5000000000001 663.8125 647 653.125 638.75 647.375L446.125 521.875A46.4375 46.4375 0 0 1 432.125 457.9375L447.75 434.125C453.4999999999999 425.9375 464.125 423.5 472.375 429.1875L773.3749999999999 624.4375A19.125 19.125 0 0 1 779.9375 647.375V648.25C775.0625 657.25 770.125 665.4375 765.1874999999999 674.5C667.5625 822.125 468.2499999999999 864.8125 318.9375 768zM768.4375 507.125L707.6875 467.75C699.5625 462 697.0625 451.375 702.8125000000001 443.125L742.1875 382.5C747.9375 374.25 758.5625 371.7499999999999 766.75 377.5L797.1250000000001 397.1874999999999A54.0625 54.0625 0 0 1 812.7500000000001 471.8749999999999L793 502.1874999999999A19.0625 19.0625 0 0 1 768.4375 507.1874999999999z" />
    <glyph glyph-name="ep:element-plus"
      unicode="&#xE061;"
      horiz-adv-x="1000" d="M820.01953125 282.51953125C820.01953125 250 802.5390625000001 242.48046875 802.5390625000001 242.48046875S507.5195312500001 72.4609375 487.5 62.5C477.5390625 57.51953125 467.48046875 57.51953125 457.51953125 62.5C457.51953125 62.5 150 242.48046875 140.0390625 250C135.05859375 254.98046875 130.078125 262.5 127.5390625 270.01953125V640.0390625C127.5390625 657.51953125 147.55859375 667.578125 147.55859375 667.578125L455.078125 845.1171875C467.578125 850.09765625 480.078125 850.09765625 492.578125 845.1171875C492.578125 845.1171875 765.0390625 687.59765625 795.1171875 670.1171875C812.59765625 662.59765625 822.6562500000001 645.1171875 820.1171875000001 625.09765625C820.01953125 629.98046875 820.01953125 315.0390625 820.01953125 282.51953125zM697.4609375 637.5C634.9609375 672.4609375 484.9609375 759.9609375 484.9609375 759.9609375C477.4414062500001 764.94140625 464.94140625 764.94140625 454.9804687500001 759.9609375L212.5 620.01953125S195.01953125 610.05859375 195.01953125 597.55859375V307.51953125C195.01953125 302.5390625 200 295.01953125 202.5390625 290.0390625C210.05859375 285.05859375 452.5390625 145.01953125 452.5390625 145.01953125C460.0585937499999 140.0390625 470.0195312499999 140.0390625 477.5390625 145.01953125C492.578125 152.5390625 722.55859375 287.5 722.55859375 287.5S735.0585937499999 292.48046875 735.0585937499999 317.48046875V389.9414062500001L465.0390624999999 224.9023437500001V287.4023437500001C465.0390624999999 304.8828125 472.5585937499999 317.3828125000001 485.0585937499999 332.4218750000001L727.5390625 477.5390625C732.51953125 485.05859375 737.5 497.55859375 737.5 507.51953125V572.55859375L465.0390625000001 407.51953125V475C465.0390625000001 490.0390624999999 470.0195312500001 504.9804687499999 482.51953125 512.5L697.4609375 637.5zM897.4609375 867.48046875C897.4609375 872.4609375 892.48046875 875 889.94140625 875H832.421875V934.9609375C832.421875 939.94140625 827.44140625 939.94140625 822.4609374999999 939.94140625L792.4804687499999 934.9609375C787.4999999999999 934.9609375 787.4999999999999 932.421875 787.4999999999999 929.98046875V875H732.5195312499999C727.5390624999999 875 727.5390624999999 870.01953125 724.9999999999999 870.01953125V832.51953125H792.4804687499999V770.01953125C792.4804687499999 765.0390625 797.4609374999999 765.0390625 802.4414062499999 765.0390625L832.421875 770.01953125C837.40234375 770.01953125 837.40234375 772.55859375 837.40234375 775V829.98046875H899.90234375L897.4609375 867.48046875z" />
    <glyph glyph-name="ep:expand"
      unicode="&#xE062;"
      horiz-adv-x="1000" d="M125 812.5H875V687.5H125V812.5zM125 562.5H625V437.5H125V562.5zM125 312.5H875V187.5H125V312.5zM687.5 656.25L875 500L687.5 375V656.25z" />
    <glyph glyph-name="ep:failed"
      unicode="&#xE063;"
      horiz-adv-x="1000" d="M544.1875 406.25L676.7500000000001 538.8125L632.5625 583L500.0625000000001 450.4375L367.4375000000001 582.9375L323.2500000000001 538.8125L455.8125 406.25L323.3125 273.7499999999999L367.4375 229.4999999999999L500 362.0625L632.5625 229.4999999999999L676.7500000000001 273.6875L544.25 406.25zM687.5 812.5H843.75V93.75H156.25V812.5H312.5V750H687.5V812.5zM375 812.5V906.25H625V812.5H375z" />
    <glyph glyph-name="ep:female"
      unicode="&#xE064;"
      horiz-adv-x="1000" d="M500 375A250 250 0 1 1 500 875A250 250 0 0 1 500 375zM500 312.5A312.5 312.5 0 1 0 500 937.5A312.5 312.5 0 0 0 500 312.5zM500 375Q531.25 375 531.25 343.75V93.75Q531.25 62.5 500 62.5T468.75 93.75V343.75Q468.75 375 500 375zM343.75 218.75H656.25Q687.5 218.75 687.5 187.5T656.25 156.25H343.75Q312.5 156.25 312.5 187.5T343.75 218.75z" />
    <glyph glyph-name="ep:files"
      unicode="&#xE065;"
      horiz-adv-x="1000" d="M125 625V187.5H875V625H125zM93.75 687.5H906.25A31.25 31.25 0 0 0 937.5 656.25V156.25A31.25 31.25 0 0 0 906.25 125H93.75A31.25 31.25 0 0 0 62.5 156.25V656.25A31.25 31.25 0 0 0 93.75 687.5zM156.25 812.5H843.75V750H156.25zM250 937.5H750V875H250z" />
    <glyph glyph-name="ep:film"
      unicode="&#xE066;"
      horiz-adv-x="1000" d="M156.25 843.75V156.25H843.75V843.75H156.25zM125 906.25H875A31.25 31.25 0 0 0 906.25 875V125A31.25 31.25 0 0 0 875 93.75H125A31.25 31.25 0 0 0 93.75 125V875A31.25 31.25 0 0 0 125 906.25zM312.5 718.75V875H375V531.25H625V875H687.5V718.75H843.75V656.25H687.5V531.25H843.75V468.75H687.5V343.75H843.75V281.25H687.5V125H625V468.75H375V125H312.5V281.25H125V343.75H312.5V468.75H125V531.25H312.5V656.25H125V718.75H312.5z" />
    <glyph glyph-name="ep:filter"
      unicode="&#xE067;"
      horiz-adv-x="1000" d="M375 488.8749999999999V93.75A31.25 31.25 0 0 1 420.25 65.8125L607.75 159.5625A31.25 31.25 0 0 1 625 187.5V488.8749999999999L899.1875 823.9375A31.25 31.25 0 1 1 850.8125 863.5624999999999L569.5625 519.8124999999999A31.25 31.25 0 0 1 562.5 500V206.8125000000001L437.5 144.3125000000001V500A31.25 31.25 0 0 1 430.4375 519.8125L190.9375 812.5H687.5A31.25 31.25 0 1 1 687.5 875H125A31.25 31.25 0 0 1 100.8125 823.9375L375 488.8749999999999z" />
    <glyph glyph-name="ep:finished"
      unicode="&#xE068;"
      horiz-adv-x="1000" d="M274.1875 263.9375L675.25 836.875A31.25 31.25 0 1 0 726.4375000000001 801.0625L306.875 201.6875A31.25 31.25 0 0 0 262.5 194.5625L37.5 363.3124999999999A31.25 31.25 0 0 0 75 413.3125L274.1875 263.9374999999999zM718.75 562.5A31.25 31.25 0 1 0 718.75 625H906.25A31.25 31.25 0 1 0 906.25 562.5H718.75zM593.75 375A31.25 31.25 0 0 0 593.75 437.5H906.1874999999998A31.25 31.25 0 1 0 906.1874999999998 375H593.75zM468.75 187.5A31.25 31.25 0 1 0 468.75 250H906.1874999999998A31.25 31.25 0 1 0 906.1874999999998 187.5H468.75z" />
    <glyph glyph-name="ep:first-aid-kit"
      unicode="&#xE069;"
      horiz-adv-x="1000" d="M187.5 750A62.5 62.5 0 0 1 125 687.5V250A62.5 62.5 0 0 1 187.5 187.5H812.5A62.5 62.5 0 0 1 875 250V687.5A62.5 62.5 0 0 1 812.5 750H187.5zM187.5 812.5H812.5A125 125 0 0 0 937.5 687.5V250A125 125 0 0 0 812.5 125H187.5A125 125 0 0 0 62.5 250V687.5A125 125 0 0 0 187.5 812.5zM531.25 500H625A31.25 31.25 0 0 0 625 437.5H531.25V343.75A31.25 31.25 0 0 0 468.75 343.75V437.5H375A31.25 31.25 0 0 0 375 500H468.75V593.75A31.25 31.25 0 0 0 531.25 593.75V500zM343.75 875V812.5H656.25V875H343.75zM312.5 937.5H687.5A31.25 31.25 0 0 0 718.75 906.25V781.25A31.25 31.25 0 0 0 687.5 750H312.5A31.25 31.25 0 0 0 281.25 781.25V906.25A31.25 31.25 0 0 0 312.5 937.5z" />
    <glyph glyph-name="ep:flag"
      unicode="&#xE06A;"
      horiz-adv-x="1000" d="M281.25 875H875L718.75 625L875 375H281.25V62.5H187.5V937.5H281.25V875z" />
    <glyph glyph-name="ep:fold"
      unicode="&#xE06B;"
      horiz-adv-x="1000" d="M875 812.5H125V687.5H875V812.5zM875 562.5H375V437.5H875V562.5zM875 312.5H125V187.5H875V312.5zM312.5 625L125 500L312.5 375V625z" />
    <glyph glyph-name="ep:folder"
      unicode="&#xE06C;"
      horiz-adv-x="1000" d="M125 812.5V187.5H875V687.5H474.375L349.125 812.5H125zM93.75 875H374.875L500.25 750H906.25A31.25 31.25 0 0 0 937.5 718.75V156.25A31.25 31.25 0 0 0 906.25 125H93.75A31.25 31.25 0 0 0 62.5 156.25V843.75A31.25 31.25 0 0 0 93.75 875z" />
    <glyph glyph-name="ep:folder-add"
      unicode="&#xE06D;"
      horiz-adv-x="1000" d="M125 812.5V187.5H875V687.5H474.375L349.125 812.5H125zM93.75 875H374.875L500.25 750H906.25A31.25 31.25 0 0 0 937.5 718.75V156.25A31.25 31.25 0 0 0 906.25 125H93.75A31.25 31.25 0 0 0 62.5 156.25V843.75A31.25 31.25 0 0 0 93.75 875zM468.75 468.75V593.75H531.25V468.75H656.25V406.25H531.25V281.25H468.75V406.25H343.75V468.75H468.75z" />
    <glyph glyph-name="ep:folder-checked"
      unicode="&#xE06E;"
      horiz-adv-x="1000" d="M125 812.5V187.5H875V687.5H474.375L349.125 812.5H125zM93.75 875H374.875L500.25 750H906.25A31.25 31.25 0 0 0 937.5 718.75V156.25A31.25 31.25 0 0 0 906.25 125H93.75A31.25 31.25 0 0 0 62.5 156.25V843.75A31.25 31.25 0 0 0 93.75 875zM498.125 384.625L674.875 561.375L719.0625 517.1875L498.125 296.25L343.4375 450.875L387.625 495.1250000000001L498.125 384.625z" />
    <glyph glyph-name="ep:folder-delete"
      unicode="&#xE06F;"
      horiz-adv-x="1000" d="M125 812.5V187.5H875V687.5H474.375L349.125 812.5H125zM93.75 875H374.875L500.25 750H906.25A31.25 31.25 0 0 0 937.5 718.75V156.25A31.25 31.25 0 0 0 906.25 125H93.75A31.25 31.25 0 0 0 62.5 156.25V843.75A31.25 31.25 0 0 0 93.75 875zM455.8125 437.5L367.4375 525.875L411.625 570.0625L500 481.6875L588.375 570.0625L632.5625 525.875L544.1875 437.5L632.5625 349.125L588.375 304.9375L500 393.3125L411.625 304.9375L367.4375 349.125L455.8125 437.5z" />
    <glyph glyph-name="ep:folder-opened"
      unicode="&#xE070;"
      horiz-adv-x="1000" d="M857.5 562.5H236.25L142.5 187.5H763.7499999999999L857.4999999999999 562.5zM812.5 625V687.5H474.375L349.125 812.5H125V375L181.5625 601.3125A31.25 31.25 0 0 0 211.875 625H812.5zM788.125 125H93.75A31.25 31.25 0 0 0 62.5 156.25V843.75A31.25 31.25 0 0 0 93.75 875H374.875L500.25 750H843.75A31.25 31.25 0 0 0 875 718.75V625H897.5A31.25 31.25 0 0 0 927.8124999999998 586.1875L818.4374999999999 148.6875A31.25 31.25 0 0 0 788.125 125z" />
    <glyph glyph-name="ep:folder-remove"
      unicode="&#xE071;"
      horiz-adv-x="1000" d="M125 812.5V187.5H875V687.5H474.375L349.125 812.5H125zM93.75 875H374.875L500.25 750H906.25A31.25 31.25 0 0 0 937.5 718.75V156.25A31.25 31.25 0 0 0 906.25 125H93.75A31.25 31.25 0 0 0 62.5 156.25V843.75A31.25 31.25 0 0 0 93.75 875zM343.75 468.75H656.25V406.25H343.75V468.75z" />
    <glyph glyph-name="ep:food"
      unicode="&#xE072;"
      horiz-adv-x="1000" d="M125 655.6875V656.25A281.25 281.25 0 0 0 604.5625 855.6875A187.5 187.5 0 0 0 872.375 656A62.5 62.5 0 0 0 928.25 583.5C900 413.5625 830.125 306 718.75 260.75V218.75A93.75 93.75 0 0 0 625 125H375A93.75 93.75 0 0 0 281.25 218.75V260.75C169.875 306 100 413.5625 71.75 583.5A62.5 62.5 0 0 0 125 655.625zM187.5 656.25H250A156.25 156.25 0 0 0 562.5 656.25H625A218.75 218.75 0 0 1 187.5 656.25zM312.5 656.25H500A93.75 93.75 0 0 1 312.5 656.25zM741.625 656.25H808.5625A125.25 125.25 0 0 1 687.5 812.5C672.5 812.5 658.25 809.875 645 805.0625C656.0625 787.3125 665.1875 768.1875 672.1875 748.125A62.625 62.625 0 0 0 741.625 656.25zM656.25 250H343.75V218.75A31.25 31.25 0 0 1 375 187.5H625A31.25 31.25 0 0 1 656.25 218.75V250zM321.75 312.5H678.25C777.375 344.375 840.125 434.5 866.625 593.75H133.375C159.875 434.5 222.625 344.375 321.75 312.5z" />
    <glyph glyph-name="ep:football"
      unicode="&#xE073;"
      horiz-adv-x="1000" d="M500 62.5A437.5 437.5 0 1 0 500 937.5A437.5 437.5 0 0 0 500 62.5zM500 125A375 375 0 1 1 500 875A375 375 0 0 1 500 125zM182.4375 738C198.0625 754 213.3125 769 228.3125 783C245.375 753.0625 267.1875 726.25 292.75 703.625L261 648.5A376.9375 376.9375 0 0 0 182.4375 738zM820.8125 743.1875A376.875 376.875 0 0 0 739.0000000000001 648.5L707.2500000000001 703.5625A315.3544921875 315.3544921875 0 0 1 774.1250000000002 787.3125C789.3125000000002 773.5625 804.8750000000002 758.875 820.8125000000001 743.1875zM455.0625 565.1875L465.9375 626.8125A316 316 0 0 1 534.0625 626.8125L544.9375 565.1875A378.875 378.875 0 0 0 455.0625 565.1875zM393.8125 577.6875A372.875 372.875 0 0 0 312.5 612.75L343.75 666.875A312.3876953125 312.3876953125 0 0 1 404.75 639.8125L393.8125 577.8125zM687.5625000000001 612.6875A372.875 372.875 0 0 0 606.1875000000001 577.6875L595.25 639.75A312.3876953125 312.3876953125 0 0 1 656.25 666.8125L687.5 612.6875zM179.0000000000001 256.4375000000001A376.875 376.875 0 0 0 261.0000000000001 351.4375000000001L292.7500000000001 296.4375C266.5000000000001 273.0625 244.0625000000001 245.3125 226.8125000000001 214.375C211.1875000000001 227.5 195.2500000000001 241.4375 179.0000000000001 256.4375zM821.125 256.3125A1408.9443359375 1408.9443359375 0 0 0 773.25 214.25A313.875 313.875 0 0 1 707.2499999999999 296.4375L738.9999999999999 351.4375000000001C771.4374999999999 324.625 799.2499999999999 292.5000000000001 821.1249999999999 256.3125zM455 434.8125A378.875 378.875 0 0 0 544.875 434.8125L534 373.1875A316 316 0 0 1 465.8750000000001 373.1875L455 434.8125zM393.7500000000001 422.3125000000001L404.6875000000001 360.2500000000001A312.3876953125 312.3876953125 0 0 1 343.6875000000001 333.1875000000001L312.5 387.3125A372.875 372.875 0 0 0 393.8125 422.3125zM687.5 387.3125000000001L656.25 333.1875000000001A310.8125 310.8125 0 0 1 595.1875 360.2500000000001L606.125 422.25C634.8750000000001 413.8125 662.0625 402 687.4375 387.3125000000001z" />
    <glyph glyph-name="ep:fork-spoon"
      unicode="&#xE074;"
      horiz-adv-x="1000" d="M250 599.3125V906.25A31.25 31.25 0 0 0 312.5 906.25V599.3125A93.75 93.75 0 0 1 375 687.75V906.25A31.25 31.25 0 0 0 437.5 906.25V687.75A156.25 156.25 0 0 0 312.5 534.625V93.75A31.25 31.25 0 1 0 250 93.75V534.625A156.25 156.25 0 0 0 125 687.75V906.25A31.25 31.25 0 0 0 187.5 906.25V687.75A93.75 93.75 0 0 1 250 599.3125zM656.25 440.9375C567.5625 460.8125 500 563.625 500 687.5C500 825.625 583.9375 937.5 687.5 937.5S875 825.625 875 687.5C875 563.625 807.4375 460.8125000000001 718.75 440.9375V93.75A31.25 31.25 0 1 0 656.25 93.75V440.9375zM687.5 500C752 500 812.5 580.625 812.5 687.5S752 875 687.5 875S562.5 794.375 562.5 687.5S623 500 687.5 500z" />
    <glyph glyph-name="ep:fries"
      unicode="&#xE075;"
      horiz-adv-x="1000" d="M593.75 781.25V843.75A31.25 31.25 0 0 1 531.25 843.75V515.625H557.5A62.5 62.5 0 0 1 593.75 527.25V781.25zM692.5 625A62.5 62.5 0 0 1 656.25 613.375V625H718.75V781.25A31.25 31.25 0 1 1 656.25 781.25V625H692.5zM765.625 625A90.75 90.75 0 0 0 854.8125 517.5L795.5625 201.5A93.75 93.75 0 0 0 703.4375 125H296.5625A93.75 93.75 0 0 0 204.4375 201.5L145.1875 517.5A90.75 90.75 0 0 0 234.375 625H218.75V781.25A93.75 93.75 0 0 0 402.9375 805.9375A93.5 93.5 0 0 0 468.75 807.1875V843.75A93.75 93.75 0 0 0 652.9375 868.4375A93.75 93.75 0 0 0 781.25 781.25V625H765.625zM655.0625 500A125 125 0 0 0 557.5 453.125H442.5A125 125 0 0 0 345 500H343.75V501.5A125.125 125.125 0 0 0 334 516.125L307.5 562.5H234.375A28.25 28.25 0 0 1 206.5625 529L235.4375 375H764.5624999999999L793.4374999999999 529A28.25 28.25 0 0 1 765.625 562.5H692.5L666 516.125A129.3017578125 129.3017578125 0 0 0 656.25 501.5V500H655.0625zM468.75 718.75A31.25 31.25 0 0 1 406.25 718.75V527.25A62.5 62.5 0 0 1 442.5 515.625H468.75V718.75zM343.75 625V781.25A31.25 31.25 0 0 1 281.25 781.25V625H343.75H307.5A62.5 62.5 0 0 0 343.75 613.375zM247.1875 312.5L265.8125 213A31.25 31.25 0 0 1 296.5625 187.5H703.4374999999999A31.25 31.25 0 0 1 734.1875 213L752.8125 312.5H247.1875z" />
    <glyph glyph-name="ep:full-screen"
      unicode="&#xE076;"
      horiz-adv-x="1000" d="M156.25 906.1875L343.75 906A31.25 31.25 0 0 0 343.75 843.5L156.25 843.6875V656.25A31.25 31.25 0 0 0 93.75 656.25V906.25H156.25V906.1875zM156.25 93.8125000000001V93.75H93.75V343.75A31.25 31.25 0 1 0 156.25 343.75V156.3125L343.75 156.5A31.25 31.25 0 1 0 343.75 94L156.25 93.8125zM843.75 906.1875V906.25H906.25V656.25A31.25 31.25 0 1 0 843.75 656.25V843.6875L656.25 843.5A31.25 31.25 0 1 0 656.25 906L843.75 906.1875zM843.75 93.8125000000001L656.25 94.0000000000001A31.25 31.25 0 0 0 656.25 156.5000000000001L843.75 156.3125000000001V343.75A31.25 31.25 0 1 0 906.25 343.75V93.75H843.75V93.8125z" />
    <glyph glyph-name="ep:goblet"
      unicode="&#xE077;"
      horiz-adv-x="1000" d="M531.25 376.5625V125H625A31.25 31.25 0 1 0 625 62.5H375A31.25 31.25 0 1 0 375 125H468.75V376.5625A312.5 312.5 0 0 0 187.5 687.5C187.5 771.125 208.3125 854.4375 250 937.5H750C791.6875 874.6875 812.5 791.375 812.5 687.5A312.5 312.5 0 0 0 531.25 376.5625zM250 687.5A250 250 0 1 1 750 687.5C750 764.25 737.6875 826.5625 713.9375 875H289.875C263.1875 812.125 250 749.75 250 687.5z" />
    <glyph glyph-name="ep:goblet-full"
      unicode="&#xE078;"
      horiz-adv-x="1000" d="M250 687.5H750C750 764.25 737.6875 826.5625 713.9375 875H289.875C263.1875 812.125 250 749.75 250 687.5zM742.1249999999999 625H257.875A250.125 250.125 0 0 1 742.125 625zM531.25 376.5625V125H625A31.25 31.25 0 1 0 625 62.5H375A31.25 31.25 0 1 0 375 125H468.75V376.5625A312.5 312.5 0 0 0 187.5 687.5C187.5 771.125 208.3125 854.4375 250 937.5H750C791.6875 874.6875 812.5 791.375 812.5 687.5A312.5 312.5 0 0 0 531.25 376.5625z" />
    <glyph glyph-name="ep:goblet-square"
      unicode="&#xE079;"
      horiz-adv-x="1000" d="M531.25 376.0625V125H625A31.25 31.25 0 1 0 625 62.5H375A31.25 31.25 0 1 0 375 125H468.75V376.125C244.75 391.1875 187.5 567.875 187.5 687.8125V906.25A31.25 31.25 0 0 0 218.75 937.5H781.25A31.25 31.25 0 0 0 812.5 906.25V687.5C812.5 567.5625 755.25 390.9374999999999 531.25 376.0625zM250 687.8125C250 541.75 328.125 437.6249999999999 500 437.5625000000001C672 437.5 750 541.4375 750 687.5V875H250V687.8125z" />
    <glyph glyph-name="ep:goblet-square-full"
      unicode="&#xE07A;"
      horiz-adv-x="1000" d="M250 735.4375C259.8125 728.875 271.9375 720.875 278.3125 717.25A215 215 0 0 1 390.375 687.25C420.25 687.25 438.6250000000001 696.5 479.3125000000001 727.4375L479.9375 727.875C531.625 767.25 560.3750000000001 781.625 609.125 781.25C663.375 780.8125 706.375 760.9375 748.5 725.1875L750 723.9375V875H250V735.4375zM250.9375 660.9375C260.125 529.125 338.75 437.625 500 437.5C653.75 437.4375 732.375 520.5625 747.3125 642.5625A930.0000000000002 930.0000000000002 0 0 0 708.0625 677.4375C676.1250000000001 704.5625 646.1875 718.375 608.5625 718.6875C577.75 718.9375 559.125 709.625 517.625 678.0625L517.0625 677.625C466.1875 638.9375 437.9375 624.6875 390.3125 624.6875C336.8125 624.6875 292.1875 637.75 250.875 660.875zM468.75 376.125C244.75 391.1875 187.5 567.875 187.5 687.8125V906.25A31.25 31.25 0 0 0 218.75 937.5H781.25A31.25 31.25 0 0 0 812.5 906.25V687.5C812.5 567.5625 755.25 390.9374999999999 531.25 376.0625V125H625A31.25 31.25 0 1 0 625 62.5H375A31.25 31.25 0 1 0 375 125H468.75V376.125z" />
    <glyph glyph-name="ep:gold-medal"
      unicode="&#xE07B;"
      horiz-adv-x="1000" d="M754.033203125 557.7734375L806.630859375 901.337890625C807.9199218750001 911.11328125 805.48828125 919.580078125 799.31640625 926.748046875S785.498046875 937.5 776.376953125 937.5H223.623046875V937.509765625H223.564453125C214.453125 937.509765625 206.81640625 933.92578125 200.625 926.7578125S192.001953125 911.123046875 193.310546875 901.34765625L245.91796875 557.705078125C208.53515625 506.123046875 189.052734375 445.224609375 187.5 375C189.453125 286.455078125 219.892578125 212.724609375 278.80859375 153.80859375S411.455078125 64.462890625 500 62.5C588.544921875 64.453125 662.275390625 94.892578125 721.19140625 153.80859375C780.107421875 212.734375 810.537109375 286.455078125 812.5 375C810.947265625 445.25390625 791.4453125 506.171875 754.033203125 557.7734375zM625.009765625 875H739.287109375L701.19140625 626.93359375C680.927734375 637.32421875 661.40625 646.201171875 642.6562499999999 653.57421875C636.875 656.50390625 630.9863281249999 659.23828125 624.9999999999999 661.787109375V875H625.0097656249999zM562.5 875V680.8984375C549.62890625 683.41796875 536.38671875 685.224609375 522.783203125 686.318359375C514.90234375 687.099609375 507.3046875 687.490234375 500 687.490234375C489.70703125 687.490234375 479.404296875 686.845703125 469.1015625 685.576171875A351.41015625 351.41015625 0 0 1 437.5 680.8984375V875H562.5zM375 875H375.0390625V661.81640625C368.96484375 659.21875 362.9882812500001 656.4453125 357.109375 653.45703125C338.427734375 646.09375 319.00390625 637.24609375 298.84765625 626.93359375L260.751953125 875H375zM676.748046875 198.251953125C629.873046875 151.376953125 570.95703125 126.962890625 500 125C429.0429687500001 126.962890625 370.126953125 151.376953125 323.251953125 198.251953125S251.962890625 304.04296875 250 375C251.962890625 445.95703125 276.376953125 504.873046875 323.251953125 551.748046875C342.4609375 570.95703125 363.69140625 586.38671875 386.943359375 598.046875C424.375 612.734375 456.42578125 621.40625 483.076171875 624.072265625C488.02734375 624.47265625 493.037109375 624.755859375 498.10546875 624.931640625C498.720703125 624.94140625 499.35546875 624.9609375 499.970703125 624.9609375C500.615234375 624.9609375 501.2890625000001 624.931640625 501.943359375 624.9218749999999C506.93359375 624.7558593749999 511.85546875 624.47265625 516.71875 624.0820312499999C543.4765625 621.4355468749999 575.673828125 612.7050781249999 613.310546875 597.9199218749999C636.46484375 586.2695312499999 657.607421875 570.8789062499999 676.748046875 551.7382812499998C723.623046875 504.8632812499998 748.037109375 445.9472656249999 750 374.9902343749998C748.037109375 304.0429687499998 723.623046875 245.1269531249998 676.748046875 198.2519531249998zM531.25 531.25H406.25V468.75H468.75V281.25H406.25V218.75H593.75V281.25H531.25z" />
    <glyph glyph-name="ep:goods"
      unicode="&#xE07C;"
      horiz-adv-x="1000" d="M312.5 718.75V740.5625C312.5 848.9375 396 937.5 500 937.5S687.5 848.9375 687.5 740.5625V718.6875H815.5A31.25 31.25 0 0 0 846.5625 690.5625L902.8125 128.0625A31.25 31.25 0 0 0 871.75 93.6874999999999H128.25A31.25 31.25 0 0 0 97.1875 128.0625L153.4375 690.5625A31.25 31.25 0 0 0 184.5 718.6875H312.5zM375 718.75H625V740.5625C625 815.1875 568.625 875 500 875C431.375 875 375 815.1875 375 740.5625V718.6875zM312.5 656.25H212.8125L162.8125 156.25H837.1875L787.125 656.25H687.5V562.5A31.25 31.25 0 1 0 625 562.5V656.25H375V562.5A31.25 31.25 0 0 0 312.5 562.5V656.25z" />
    <glyph glyph-name="ep:goods-filled"
      unicode="&#xE07D;"
      horiz-adv-x="1000" d="M187.5 656.25H812.5L875 125H125L187.5 656.25zM312.5 437.5H375V562.5H312.5V437.5zM625 437.5H687.5V562.5H625V437.5zM375 718.75H312.5A187.5 187.5 0 1 0 687.5 718.75H625A125 125 0 1 1 375 718.75z" />
    <glyph glyph-name="ep:grape"
      unicode="&#xE07E;"
      horiz-adv-x="1000" d="M531.25 809.375A156.25 156.25 0 0 0 625 750A156.25 156.25 0 1 0 767.8125 501A156.25 156.25 0 0 0 642.8125 282.25A156.25 156.25 0 1 0 357.1875 282.25A156.25 156.25 0 0 0 232.1875 501A156.25 156.25 0 1 0 375 750A156.25 156.25 0 0 0 468.75 809.375V875H406.25A31.25 31.25 0 0 0 406.25 937.5H593.75A31.25 31.25 0 0 0 593.75 875H531.25V809.375zM500 562.5A93.75 93.75 0 1 1 500 750A93.75 93.75 0 0 1 500 562.5zM250 562.5A93.75 93.75 0 1 1 250 750A93.75 93.75 0 0 1 250 562.5zM375 343.75A93.75 93.75 0 1 1 375 531.25A93.75 93.75 0 0 1 375 343.75zM500 125A93.75 93.75 0 1 1 500 312.5A93.75 93.75 0 0 1 500 125zM625 343.75A93.75 93.75 0 1 1 625 531.25A93.75 93.75 0 0 1 625 343.75zM750 562.5A93.75 93.75 0 1 1 750 750A93.75 93.75 0 0 1 750 562.5z" />
    <glyph glyph-name="ep:grid"
      unicode="&#xE07F;"
      horiz-adv-x="1000" d="M625 625V375H375V625H625zM687.5 625H875V375H687.5V625zM625 125H375V312.5H625V125zM687.5 125V312.5H875V125H687.5zM625 875V687.5H375V875H625zM687.5 875H875V687.5H687.5V875zM312.5 625V375H125V625H312.5zM312.5 125H125V312.5H312.5V125zM312.5 875V687.5H125V875H312.5z" />
    <glyph glyph-name="ep:guide"
      unicode="&#xE080;"
      horiz-adv-x="1000" d="M625 406.25H562.5V593.75H625V406.25zM625 250V93.75A31.25 31.25 0 0 0 593.75 62.5H406.25A31.25 31.25 0 0 0 375 93.75V250H437.5V125H562.5V250H625zM375 406.25V593.75H437.5V406.25H375zM625 750H562.5V875H437.5V750H375V906.25A31.25 31.25 0 0 0 406.25 937.5H593.75A31.25 31.25 0 0 0 625 906.25V750zM215.625 750L146.0625 671.875L215.5625 593.75H750V750H215.625zM201.5625 812.5H781.25A31.25 31.25 0 0 0 812.5 781.25V562.5A31.25 31.25 0 0 0 781.25 531.25H201.5625A31.25 31.25 0 0 0 178.1875 541.75L80.9375 651.125A31.25 31.25 0 0 0 80.9375 692.625L178.1875 802A31.25 31.25 0 0 0 201.5625 812.5zM864.4375 328.125L794.9999999999999 250H260.5625V406.25H794.9375000000001L864.4375000000001 328.125zM808.9999999999999 468.75H229.375A31.25 31.25 0 0 1 198.125 437.5V218.75A31.25 31.25 0 0 1 229.375 187.5H809.0625A31.25 31.25 0 0 1 832.4375 198L929.6875 307.375A31.25 31.25 0 0 1 929.6875 348.8749999999999L832.4374999999999 458.2499999999999A31.25 31.25 0 0 1 809.0625 468.75z" />
    <glyph glyph-name="ep:handbag"
      unicode="&#xE081;"
      horiz-adv-x="1000" d="M866.220703125 741.220703125C860.361328125 747.0703125 852.87109375 750 843.75 750H687.5C686.19140625 803.3984375 667.958984375 847.666015625 632.8125 882.8125S553.3984375000001 936.19140625 500 937.5C446.6015625 936.19140625 402.333984375 917.958984375 367.1875 882.8125S313.8085937500001 803.3984375 312.5 750H156.25C147.119140625 750 139.62890625 747.0703125 133.779296875 741.220703125C127.9296875 735.361328125 125 727.87109375 125 718.75V93.75C125 84.619140625 127.919921875 77.12890625 133.779296875 71.279296875S147.12890625 62.5 156.25 62.5H843.75C852.880859375 62.5 860.37109375 65.419921875 866.220703125 71.279296875S875 84.62890625 875 93.75V718.75C875 727.880859375 872.080078125 735.37109375 866.220703125 741.220703125zM411.62109375 838.37890625C435.37109375 862.1484375 464.833984375 874.35546875 500 875C535.146484375 874.3359375 564.609375 862.12890625 588.37890625 838.37890625S624.35546875 785.166015625 625 750H375C375.6640625 785.146484375 387.87109375 814.609375 411.62109375 838.37890625zM812.5 125H187.5V687.5H312.5V562.5H375V687.5H625V562.5H687.5V687.5H812.5V125z" />
    <glyph glyph-name="ep:headset"
      unicode="&#xE082;"
      horiz-adv-x="1000" d="M875 483.25V500A375 375 0 1 1 125 500V483.25A125 125 0 0 0 312.5 375V250A125 125 0 1 0 62.5 250V500A437.5 437.5 0 1 0 937.5 500V250A125 125 0 1 0 687.5 250V375A125 125 0 0 0 875 483.25zM875 375A62.5 62.5 0 0 1 750 375V250A62.5 62.5 0 0 1 875 250V375zM125 375V250A62.5 62.5 0 0 1 250 250V375A62.5 62.5 0 1 1 125 375z" />
    <glyph glyph-name="ep:help"
      unicode="&#xE083;"
      horiz-adv-x="1000" d="M742.125 213.625L653.3125000000001 302.5A248.9375 248.9375 0 0 0 500 250A248.9375 248.9375 0 0 0 346.6875000000001 302.5L257.875 213.625A373.5 373.5 0 0 1 500 125C592.3125 125 676.875 158.375 742.125 213.625zM786.375 257.875A373.5 373.5 0 0 1 875 500C875 592.3125 841.625 676.875 786.375 742.125L697.5 653.3125C730.375 610.9375 750 557.75 750 500C750 442.25 730.375 389.0625 697.5 346.6875L786.375 257.8750000000001zM742.125 786.375A373.5 373.5 0 0 1 500 875C407.6875 875 323.125 841.625 257.875 786.375L346.6875 697.5A248.9375 248.9375 0 0 0 500 750C557.75 750 610.9375 730.375 653.3125 697.5L742.1249999999999 786.375zM213.6250000000001 742.125A373.5 373.5 0 0 1 125 500C125 407.6875 158.375 323.125 213.625 257.875L302.5 346.6874999999999A248.9375 248.9375 0 0 0 250 500C250 557.75 269.625 610.9375 302.5 653.3125L213.625 742.125zM621.125 356.8749999999999A190.0000000000001 190.0000000000001 0 0 1 643.1250000000001 378.875C670.8125 411.5625 687.5 453.875 687.5 500A186.75 186.75 0 0 1 621.125 643.125A186.8125 186.8125 0 0 1 500 687.5A186.75 186.75 0 0 1 356.875 621.125C329.1875 588.4375 312.5 546.125 312.5 500A186.75 186.75 0 0 1 378.875 356.875C411.5625 329.1875 453.875 312.5 500 312.5C546.1875 312.5 588.4375 329.1875 621.125 356.875zM500 62.5A437.5 437.5 0 1 0 500 937.5A437.5 437.5 0 0 0 500 62.5z" />
    <glyph glyph-name="ep:help-filled"
      unicode="&#xE084;"
      horiz-adv-x="1000" d="M905.0625 531.25H684.875A188 188 0 0 1 531.25 684.875V905.0625A406.3125 406.3125 0 0 0 905.0625 531.25zM905.0625 468.75A406.3125 406.3125 0 0 0 531.25 94.9375V315.125A188 188 0 0 1 684.875 468.75H905.0625zM95 468.75H315.1875A188 188 0 0 1 468.75 315.125V94.9375A406.3125 406.3125 0 0 0 94.9375 468.75zM95 531.25A406.3125 406.3125 0 0 0 468.75 905.0625V684.875A188 188 0 0 1 315.125 531.25H94.9375z" />
    <glyph glyph-name="ep:hide"
      unicode="&#xE085;"
      horiz-adv-x="1000" d="M856.25 846.875C856.25 856.25 853.1249999999999 862.5 846.8749999999999 868.75C840.625 875 834.375 878.125 825 878.125C815.6249999999999 878.125 809.375 875 803.125 868.75L718.75 784.375C656.25 815.625 584.375 834.375 500 843.75C343.75 828.125 218.75 771.875 131.25 671.875C43.75 571.875 0 515.625 0 500S46.875 428.125 131.25 328.125C153.125 303.125 175 281.25 203.125 262.5L118.75 174.9999999999999C112.5 168.75 109.375 162.5 109.375 153.125C109.375 143.7499999999999 112.5 137.5 118.75 131.25C125 125 131.25 121.875 140.625 121.875C150 121.875 156.25 125 162.5 131.25L850 825C853.125 831.25 856.25 837.5 856.25 846.875zM225 331.25C150 400 100 456.25 75 500.0000000000001C103.125 546.875 153.125 603.125 225 668.75C296.875 734.375 390.625 775 500 781.25C562.5 778.125 621.875 762.5 671.875 737.5L618.75 684.375C584.375 706.25 546.875 718.75 500 718.75C437.5 718.75 387.5 696.875 343.75 656.25S281.25 562.5 281.25 500C281.25 453.125 293.75 412.5 315.625 378.125L250 309.375C240.625 315.6249999999999 231.25 325 225 331.2499999999999zM362.5 425C350 446.875 343.75 471.875 343.75 500.0000000000001C343.75 543.75 359.375 581.25 390.625 609.375C421.875 637.5 456.25 656.25 500 656.25C528.125 656.25 553.125 650 571.875 637.5L362.5 425zM868.7490234375 671.875C856.2490234375001 687.5 840.6240234375001 700 828.1240234375 712.5L781.2490234375 665.625C853.1240234375 600 903.1240234375 543.75 928.1240234375 500C899.9990234375 453.125 849.9990234375 396.875 778.1240234375 331.25C706.2490234375 265.625 609.3740234375 225.0000000000001 499.9990234374999 218.75C449.9990234375 221.875 403.1240234375 231.25 362.4990234375 246.875L315.6240234375 200C371.8740234375 178.125 431.2490234375 162.5 499.9990234374999 156.25C656.2490234375 171.875 781.2490234375 228.125 868.7490234374999 328.125C956.2490234375 428.125 1000 484.375 1000 500S953.1240234375 571.875 868.7490234374999 671.875zM499.998046875 343.75C487.498046875 343.75 474.9980468749999 346.875 462.498046875 350L412.498046875 299.9999999999999C440.6230468750001 287.5 468.7480468750001 281.2499999999999 499.9980468750001 281.2499999999999C562.498046875 281.2499999999999 612.4980468750001 303.1249999999999 656.248046875 343.7499999999999C696.8730468750001 384.3749999999999 718.748046875 437.4999999999999 718.748046875 499.9999999999999C718.748046875 531.2499999999999 712.4980468750001 562.4999999999999 699.998046875 587.4999999999999L649.998046875 537.5C653.123046875 524.9999999999999 656.2480468749999 512.4999999999999 656.2480468749999 499.9999999999999C656.2480468749999 456.2499999999999 640.6230468749999 418.7499999999999 609.3730468749999 390.6249999999999C578.1230468749999 362.4999999999999 543.7480468749999 343.7499999999999 499.9980468749999 343.7499999999999z" />
    <glyph glyph-name="ep:histogram"
      unicode="&#xE086;"
      horiz-adv-x="1000" d="M406.25 125V875H593.75V125H406.25zM125 125V562.5H312.5V125H125zM687.5 125V687.5H875V125H687.5z" />
    <glyph glyph-name="ep:home-filled"
      unicode="&#xE087;"
      horiz-adv-x="1000" d="M500 875L125 562.5625V125H374.9375000000001V375H625V125H874.9375V562.5625z" />
    <glyph glyph-name="ep:hot-water"
      unicode="&#xE088;"
      horiz-adv-x="1000" d="M266.6669921875 533.3330078125H733.3330078125V600H266.6669921875V533.3330078125zM266.6669921875 466.6669921875V416.6669921874999A183.3330078125 183.3330078125 0 0 1 450 233.3330078125H550A183.3330078125 183.3330078125 0 0 1 733.3330078125 416.6669921875V466.6669921875001H266.6669921875zM233.3330078125 666.6669921875H766.6669921875A33.3330078125 33.3330078125 0 0 0 800 633.3330078125V416.6669921874999A250 250 0 0 0 550 166.6669921874999H450A250 250 0 0 0 200 416.6669921874999V633.3330078125A33.3330078125 33.3330078125 0 0 0 233.3330078125001 666.6669921875zM500 966.6669921875A33.3330078125 33.3330078125 0 0 0 533.3330078125 933.3330078125V766.6669921875A33.3330078125 33.3330078125 0 0 0 466.6669921875 766.6669921875V933.3330078125A33.3330078125 33.3330078125 0 0 0 500 966.6669921875zM366.6669921875 900A33.3330078125 33.3330078125 0 0 0 400 866.6669921875V766.6669921875A33.3330078125 33.3330078125 0 0 0 333.3330078125 766.6669921875V866.6669921875A33.3330078125 33.3330078125 0 0 0 366.6669921875 900zM633.3330078124999 900A33.3330078125 33.3330078125 0 0 0 666.6669921874999 866.6669921875V766.6669921875A33.3330078125 33.3330078125 0 1 0 599.9999999999999 766.6669921875V866.6669921875A33.3330078125 33.3330078125 0 0 0 633.3330078124999 900zM166.6669921875 99.93359375H833.3330078125001A33.3330078125 33.3330078125 0 1 0 833.3330078125001 33.2666015625H166.6669921875A33.3330078125 33.3330078125 0 1 0 166.6669921875 99.9335937500001z" />
    <glyph glyph-name="ep:house"
      unicode="&#xE089;"
      horiz-adv-x="1000" d="M187.5 595.75V125H812.5V595.75L500 856.125L187.5 595.75zM136.25 634.375L480 920.8125A31.25 31.25 0 0 0 520 920.8125L863.75 634.375A31.25 31.25 0 0 0 875 610.375V93.75A31.25 31.25 0 0 0 843.75 62.5H156.25A31.25 31.25 0 0 0 125 93.75V610.375A31.25 31.25 0 0 0 136.25 634.375z" />
    <glyph glyph-name="ep:ice-cream"
      unicode="&#xE08A;"
      horiz-adv-x="1000" d="M125.625 562.5A203.125 203.125 0 0 0 314.625 749.5625A218.75 218.75 0 0 0 749.4375 734.4375A203.25 203.25 0 0 0 873.8125 562.5H875L535.9375 39.375A31.25 31.25 0 0 0 483.9374999999999 38.6875000000001L125 562.5H125.625zM188.375 562.5H467.8750000000001A140.625 140.625 0 0 1 188.375 562.5zM531.5 562.5H811.0625A140.625 140.625 0 0 1 531.5000000000001 562.5zM243.5625 500L508.9999999999999 112.6875L760 500H243.5625zM499.6875 655.625A203 203 0 0 0 684.4375 749.5625A156.25 156.25 0 0 1 377.0625 744.0625C428.4375 731.375 472.0625000000001 699.0625 499.6875 655.625z" />
    <glyph glyph-name="ep:ice-cream-round"
      unicode="&#xE08B;"
      horiz-adv-x="1000" d="M301.125 522.125L522.125 301.125A31.25 31.25 0 0 1 566.3125 301.125L765.1875 500A187.5 187.5 0 1 1 500 765.1875L301.125 566.25A31.25 31.25 0 0 1 301.125 522.0625zM433.6875 301.125L301.125 168.5625A93.75 93.75 0 0 0 168.5625 301.125L301.125 433.6875L256.9375 477.875A93.75 93.75 0 0 0 256.9375 610.5L455.8125 809.375A250 250 0 0 0 809.375 455.8125L610.5 256.875A93.75 93.75 0 0 0 477.8750000000001 256.875L433.6875000000001 301.0625zM389.5 345.3125L345.3125 389.5L212.75 256.9375A31.25 31.25 0 0 1 256.9375 212.75L389.5 345.3125zM632.625 720.9375A31.25 31.25 0 0 0 632.625 676.75L455.6875 500A31.25 31.25 0 1 0 411.5625000000001 544.1875L588.3125 721A31.25 31.25 0 0 0 632.5000000000001 721zM721 632.5625A31.25 31.25 0 0 0 721 588.375L544.1875 411.625A31.25 31.25 0 1 0 500 455.8125L676.75 632.5625A31.25 31.25 0 0 0 721 632.5625z" />
    <glyph glyph-name="ep:ice-cream-square"
      unicode="&#xE08C;"
      horiz-adv-x="1000" d="M406.25 375H656.25A31.25 31.25 0 0 1 687.5 406.25V843.75A31.25 31.25 0 0 1 656.25 875H343.75A31.25 31.25 0 0 1 312.5 843.75V406.25A31.25 31.25 0 0 1 343.75 375H406.25zM593.75 312.5V156.25A93.75 93.75 0 0 0 406.25 156.25V312.5H343.75A93.75 93.75 0 0 0 250 406.25V843.75A93.75 93.75 0 0 0 343.75 937.5H656.25A93.75 93.75 0 0 0 750 843.75V406.25A93.75 93.75 0 0 0 656.25 312.5H593.75zM531.25 312.5H468.75V156.25A31.25 31.25 0 1 1 531.25 156.25V312.5z" />
    <glyph glyph-name="ep:ice-drink"
      unicode="&#xE08D;"
      horiz-adv-x="1000" d="M500 562.5V437.5H734.0625000000001L749.75 562.5H500zM437.5 562.5H250.25L265.9375 437.5H437.5V562.5zM500 811.875V625H741.9375A250.125 250.125 0 0 1 500 811.875zM437.5 804A250.4375 250.4375 0 0 1 258.0625 625H437.5V804zM500 874.375A312.625 312.625 0 0 0 806.125 625H875A31.25 31.25 0 1 0 875 562.5H812.5V560.625L756.875 117.25A62.5 62.5 0 0 0 694.875 62.5H305.125A62.5 62.5 0 0 0 243.125 117.25L187.5 560.625V562.5H125A31.25 31.25 0 0 0 125 625H193.875A312.875 312.875 0 0 0 437.5 868.125V906.25A93.75 93.75 0 0 0 531.25 1000H656.25A31.25 31.25 0 1 0 656.25 937.5H531.25A31.25 31.25 0 0 1 500 906.25V874.375zM726.25 375H273.75L305.125 125H694.8749999999999L726.25 375z" />
    <glyph glyph-name="ep:ice-tea"
      unicode="&#xE08E;"
      horiz-adv-x="1000" d="M193.0625 746.4375A312.625 312.625 0 0 0 806.9375 746.4375A93.75 93.75 0 0 0 875 656.25V593.75A93.75 93.75 0 0 0 805.0625 503.0624999999999L756.8125 117.25A62.5 62.5 0 0 0 694.8125 62.5H305.1875A62.5 62.5 0 0 0 243.1875 117.25L194.9375 503.0624999999999A93.75 93.75 0 0 0 125 593.75V656.25A93.75 93.75 0 0 0 193.0625 746.4375zM257.875 750H742.125A250.125 250.125 0 0 1 257.875 750zM741.6875 500H258.3125L305.1875 125H694.8125L741.6875 500zM218.75 562.5H781.25A31.25 31.25 0 0 1 812.5 593.75V656.25A31.25 31.25 0 0 1 781.25 687.5H218.75A31.25 31.25 0 0 1 187.5 656.25V593.75A31.25 31.25 0 0 1 218.75 562.5zM375 375H437.5V312.5H375V375zM562.5 312.5H625V250H562.5V312.5zM437.5 250H500V187.5H437.5V250zM500 437.5H562.5V375H500V437.5z" />
    <glyph glyph-name="ep:info-filled"
      unicode="&#xE08F;"
      horiz-adv-x="1000" d="M500 937.5A437.5 437.5 0 1 0 500 62.4375A437.5 437.5 0 0 0 500 937.5zM565.625 668.875C598.125 668.875 624.5 691.4375 624.5 724.875S598.0625 780.875 565.625 780.875C533.1250000000001 780.875 506.8750000000001 758.3125 506.8750000000001 724.875S533.1250000000001 668.875 565.625 668.875zM577.0625 317.1875C577.0625 323.8749999999999 579.3750000000001 341.2499999999999 578.0625 351.1249999999999L526.6875000000001 291.9999999999999C516.0625000000001 280.8124999999999 502.7500000000001 273.0624999999999 496.5000000000001 275.125A12.6875 12.6875 0 0 0 488.4375000000001 289.5L574.0625000000001 560C581.0625000000001 594.3125 561.8125000000001 625.625 521.0000000000001 629.625C477.9375000000001 629.625 414.5625000000001 585.9375 376.0000000000001 530.5C376.0000000000001 523.875 374.7500000000001 507.3749999999999 376.0625000000001 497.4999999999999L427.3750000000001 556.6875C438.0000000000001 567.75 450.3750000000001 575.5625 456.6250000000001 573.4375A12.5 12.5 0 0 0 464.2500000000001 557.6875L379.375 288.5C369.5625 257 388.125 226.125 433.1250000000001 219.125C499.375 219.125 538.5 261.75 577.125 317.1875z" />
    <glyph glyph-name="ep:iphone"
      unicode="&#xE090;"
      horiz-adv-x="1000" d="M218.75 250V156.1875A62.5 62.5 0 0 1 281.25 93.6875H718.75A62.5 62.5 0 0 1 781.25 156.1875V250H218.75zM218.75 312.5H781.25V843.75A62.5 62.5 0 0 1 718.75 906.25H281.25A62.5 62.5 0 0 1 218.75 843.75V312.5zM250 31.25A93.75 93.75 0 0 0 156.25 125V875A93.75 93.75 0 0 0 250 968.75H750A93.75 93.75 0 0 0 843.75 875V125A93.75 93.75 0 0 0 750 31.25H250zM546.875 171.875A46.875 46.875 0 1 0 453.125 171.875A46.875 46.875 0 0 0 546.875 171.875z" />
    <glyph glyph-name="ep:key"
      unicode="&#xE091;"
      horiz-adv-x="1000" d="M437.5 554.625V906.25A31.25 31.25 0 0 0 468.75 937.5625L656.25 937.5A31.25 31.25 0 0 0 656.25 875H500V750H656.25A31.25 31.25 0 0 0 656.25 687.5H500V562.5A250 250 0 1 0 437.5 554.625zM500 125A187.5 187.5 0 1 1 500 500A187.5 187.5 0 0 1 500 125z" />
    <glyph glyph-name="ep:knife-fork"
      unicode="&#xE092;"
      horiz-adv-x="1000" d="M250 599.0625V906.25A31.25 31.25 0 0 0 312.5 906.25V599.0625A93.75 93.75 0 0 1 375 687.5V906.25A31.25 31.25 0 0 0 437.5 906.25V687.5A156.25 156.25 0 0 0 312.5 534.375V93.75A31.25 31.25 0 1 0 250 93.75V534.375A156.25 156.25 0 0 0 125 687.5V906.25A31.25 31.25 0 0 0 187.5 906.25V687.5A93.75 93.75 0 0 1 250 599.0625zM625 843.4375V468.75H748.75C745.5 545.625 736.125 613.25 720.8125000000001 671.625C706.8125000000001 724.875 675.0625000000001 782.3125 625.0000000000001 843.375zM625 406.25V93.75A31.25 31.25 0 1 0 562.5 93.75V937.5H625C708.3125 850.125 760.4375 766.75 781.25 687.5C802.0625 608.25 812.5 514.5 812.5 406.25H625z" />
    <glyph glyph-name="ep:lightning"
      unicode="&#xE093;"
      horiz-adv-x="1000" d="M281.25 344.375V281.75A234.1875 234.1875 0 0 0 62.25 515.4375A234.6875 234.6875 0 0 0 257.0625 746.6875A250.125 250.125 0 0 0 733.5 776.9375A250.0625000000001 250.0625000000001 0 0 0 718.75 283.1875V346.4375000000001A187.5 187.5 0 0 1 722 715.5L687.6249999999999 721.9375L675.125 754.5625000000001A187.5625 187.5625 0 0 1 317.75 731.875L308.0625 691.9375L267.5625 685.0625A172.1875 172.1875 0 0 1 124.75 515.5625C124.75 425.7500000000001 193.5625 352.125 281.25 344.4375000000001zM406.25 281.25A31.25 31.25 0 0 0 379.125 328L504.1249999999999 546.75A31.25 31.25 0 1 0 558.375 515.75L460.125 343.75H593.75A31.25 31.25 0 0 0 620.875 297L495.8749999999999 78.25A31.25 31.25 0 1 0 441.5 109.2500000000001L540 281.25H406.25z" />
    <glyph glyph-name="ep:link"
      unicode="&#xE094;"
      horiz-adv-x="1000" d="M698.875 389.5L654.6875 433.6875L743.0625 522.125C816.3125 595.3125 826.1875 704.125 765.1874999999999 765.1875C704.1249999999999 826.1875 595.3124999999999 816.3125 522.0624999999999 743.0625L433.75 654.6875L389.5625000000001 698.875L477.9375 787.25C575.625 884.875 724 894.75 809.4375 809.375C894.8750000000001 723.9375 884.9375 575.5625 787.3125000000001 477.8749999999999L698.9375000000001 389.5zM610.5 301.125L522.1250000000001 212.75C424.4375 115.125 276.0625 105.25 190.625 190.625C105.1875 276.0625000000001 115.125 424.4375 212.75 522.125L301.125 610.5L345.3125 566.3125L256.9375 477.875C183.6875 404.6875000000001 173.8125 295.8750000000001 234.8125 234.8125000000001C295.875 173.8125000000001 404.6875 183.6875000000001 477.9375 256.9375L566.3125 345.3125L610.5 301.125zM610.5 654.6875L654.6875000000001 610.5L389.5 345.3125L345.3125 389.5L610.5 654.6875z" />
    <glyph glyph-name="ep:list"
      unicode="&#xE095;"
      horiz-adv-x="1000" d="M687.5 812.5H843.75V93.75H156.25V812.5H312.5V750H687.5V812.5zM281.25 500H718.75V562.5H281.25V500zM281.25 250H718.75V312.5H281.25V250zM375 812.5V906.25H625V812.5H375z" />
    </font>
</defs>
</svg>
